Rotengeist / The Test That Divides Us All
Жанр: Thrash Metal
Носитель: CD
Год издания: 2017
Издатель (лейбл): Defense Records
Номер по каталогу: DEFENSE 047
Страна исполнителя (группы): Poland
Аудиокодек: FLAC (*.flac)
Тип рипа: image+.cue
Битрейт аудио: lossless
Продолжительность: 00:31:57
Источник (релизер): мой CD
Наличие сканов в содержимом раздачи: нет
Треклист:
01. Butcher's Bill 04:39
02. Nightmare within Nightmare 05:03
03. Moments of the Ecstasies 03:21
04. Pray, Hate... Fight! 03:58
05. Lunatics Fanatics 05:09
06. New Direction 02:52
07. Gest Idoli 03:39
08. The Test That Divides Us All 03:16

Лог создания рипа

Exact Audio Copy V1.1 from 23. June 2015
Отчёт EAC об извлечении, выполненном 13. мая 2017, 5:54
Rotengeist / The Test That Divides Us All
Дисковод: HL-DT-STDVDRAM GTA0N Adapter: 1 ID: 0
Режим чтения : Достоверность
Использование точного потока : Да
Отключение кэша аудио : Да
Использование указателей C2 : Нет
Коррекция смещения при чтении : 102
Способность читать области Lead-in и Lead-out : Нет
Заполнение пропущенных сэмплов тишиной : Да
Удаление блоков с тишиной в начале и конце : Нет
При вычислениях CRC использовались нулевые сэмплы : Да
Интерфейс : Встроенный Win32-интерфейс для Win NT/2000
Выходной формат : Пользовательский кодировщик
Выбранный битрейт : 768 kBit/s
Качество : Высокий
Добавление ID3-тега : Нет
Утилита сжатия : C:\Program Files (x86)\Exact Audio Copy\FLAC\FLAC.EXE
Дополнительные параметры : -V -8 -T "Date=%year%" -T "Genre=%genre%" %source%
TOC извлечённого CD
Трек | Старт | Длительность | Начальный сектор | Конечный сектор
---------------------------------------------------------------------
1 | 0:00.00 | 4:38.44 | 0 | 20893
2 | 4:38.44 | 5:02.46 | 20894 | 43589
3 | 9:41.15 | 3:20.74 | 43590 | 58663
4 | 13:02.14 | 3:58.20 | 58664 | 76533
5 | 17:00.34 | 5:09.37 | 76534 | 99745
6 | 22:09.71 | 2:51.61 | 99746 | 112631
7 | 25:01.57 | 3:38.44 | 112632 | 129025
8 | 28:40.26 | 3:16.31 | 129026 | 143756
Характеристики диапазона извлечения и сообщения об ошибках
Выбранный диапазон
Имя файла C:\Users\магазин\Music\Rotengeist - The Test That Divides Us All.wav
Пиковый уровень 100.0 %
Скорость извлечения 3.4 X
Качество диапазона 100.0 %
CRC теста 612234F7
CRC копии 612234F7
Копирование... OK
Ошибок не произошло
AccurateRip: сводка
Трек 1 отсутствует в базе данных
Трек 2 отсутствует в базе данных
Трек 3 отсутствует в базе данных
Трек 4 отсутствует в базе данных
Трек 5 отсутствует в базе данных
Трек 6 отсутствует в базе данных
Трек 7 отсутствует в базе данных
Трек 8 отсутствует в базе данных
Ни одного трека нет в базе AccurateRip
Конец отчёта
---- CUETools DB Plugin V2.1.6
[CTDB TOCID: joeytj2m9dViDuRDvg5m4soKlXw-] disk not present in database
Submit result: joeytj2m9dViDuRDvg5m4soKlXw- has been uploaded

If you like the topic, please click share to help develop our site.

To download the file disable ad blocking, and reload the page.

disable adblock How to disable ad blocking?

Download by magnet link 243 MB Download Torrent

Login using:

Similar topics



   
Current time is: 17-Jul 06:18 :: All times are UTC + 3