Phoenix - коллекция 1974-2014 (8 альбомов)

Жанр: progressive rock, symphonic, folk
Носитель: CD
Год издания: 1974-2014
Страна исполнителя (группы): Romania
Studio Albums

1974. Phoenix - Mugur De Fluier {2008, Romania, Electrecord EDC 258}

Страна-производитель диска: Romania
Год первого выпуска: 1974
Год настоящего издания: 2008
Издатель (лейбл): Electrecord / Phoenix Records
Номер по каталогу: EDC 258
Format: CD, Album, Remastered
Аудиокодек: FLAC (*.flac)
Тип рипа: tracks+.cue
Битрейт аудио: lossless
Продолжительность: 00:45:59
Источник (релизер): e-rock.ru
Наличие сканов в содержимом раздачи: да
Треклист:
01. Lasă, Lasă Nr. 1 (01:28)
02. Pavel Chinezu, Leat 1479 (06:12)
03. Strunga (07:23)
04. Andrii Popa (03:11)
05. Lasă, Lasă Nr. 2 (00:35)
06. Mica Ţiganiadă (03:22)
07. Lasă, Lasă Nr. 3 (00:58)
08. Ochii Negri, Ochi De Ţigan (03:24)
09. Muzică Şi Muzichiie (02:10)
10. Mugur De Fluier (03:55)
11. Lasă, Lasă Nr. 4 (00:41)
12. Anule, Hanule (05:15)
13. Lasă, Lasă Nr. 5 (00:37)
14. Dansul Codrilor (06:21)

Лог создания рипа

Exact Audio Copy V1.0 beta 3 from 29. August 2011
EAC extraction logfile from 8. June 2012, 21:28
Phoenix / Mugur De Fluier
Used drive : PIONEER DVDRW DR-TD08HB Adapter: 1 ID: 0
Read mode : Secure
Utilize accurate stream : Yes
Defeat audio cache : Yes
Make use of C2 pointers : No
Read offset correction : 48
Overread into Lead-In and Lead-Out : No
Fill up missing offset samples with silence : Yes
Delete leading and trailing silent blocks : No
Null samples used in CRC calculations : Yes
Used interface : Native Win32 interface for Win NT & 2000
Gap handling : Appended to previous track
Used output format : User Defined Encoder
Selected bitrate : 1024 kBit/s
Quality : High
Add ID3 tag : No
Command line compressor : C:\Program Files (x86)\Exact Audio Copy\Flac\flac.exe
Additional command line options : -V -0 -T "artist=%artist%" -T "title=%title%" -T "album=%albumtitle%" -T "date=%year%" -T "tracknumber=%tracknr%" -T "genre=%genre%" -T "COMMENT=Released by: AVLossless Főnixek Rendje" %source%
TOC of the extracted CD
Track | Start | Length | Start sector | End sector
---------------------------------------------------------
1 | 0:00.00 | 1:30.35 | 0 | 6784
2 | 1:30.35 | 6:13.15 | 6785 | 34774
3 | 7:43.50 | 7:23.12 | 34775 | 68011
4 | 15:06.62 | 3:13.03 | 68012 | 82489
5 | 18:19.65 | 0:35.50 | 82490 | 85164
6 | 18:55.40 | 3:31.67 | 85165 | 101056
7 | 22:27.32 | 0:59.53 | 101057 | 105534
8 | 23:27.10 | 3:25.42 | 105535 | 120951
9 | 26:52.52 | 2:09.43 | 120952 | 130669
10 | 29:02.20 | 3:58.07 | 130670 | 148526
11 | 33:00.27 | 0:41.20 | 148527 | 151621
12 | 33:41.47 | 5:18.08 | 151622 | 175479
13 | 38:59.55 | 0:36.65 | 175480 | 178244
14 | 39:36.45 | 6:23.25 | 178245 | 206994
Track 1
Filename D:\AFR_EAC\Phoenix - Mugur De Fluier (Remastered Digipack Edition) (2008)[FLAC]-AFR\01 - Lasa, Lasa Nr. 1.wav
Pre-gap length 0:00:02.00
Peak level 94.8 %
Extraction speed 1.5 X
Track quality 100.0 %
Test CRC BDD2E202
Copy CRC BDD2E202
Cannot be verified as accurate (confidence 5) [4541FF28], AccurateRip returned [1B9F9AAF] (AR v2)
Copy OK
Track 2
Filename D:\AFR_EAC\Phoenix - Mugur De Fluier (Remastered Digipack Edition) (2008)[FLAC]-AFR\02 - Pavel Chinezu, Leat 1479.wav
Peak level 96.1 %
Extraction speed 2.2 X
Track quality 100.0 %
Test CRC 68012D78
Copy CRC 68012D78
Cannot be verified as accurate (confidence 5) [A2B9B3F3], AccurateRip returned [F62B1484] (AR v2)
Copy OK
Track 3
Filename D:\AFR_EAC\Phoenix - Mugur De Fluier (Remastered Digipack Edition) (2008)[FLAC]-AFR\03 - Strunga.wav
Peak level 97.3 %
Extraction speed 2.6 X
Track quality 100.0 %
Test CRC 0CC9361B
Copy CRC 0CC9361B
Cannot be verified as accurate (confidence 5) [00F7E260], AccurateRip returned [5C4F40C1] (AR v2)
Copy OK
Track 4
Filename D:\AFR_EAC\Phoenix - Mugur De Fluier (Remastered Digipack Edition) (2008)[FLAC]-AFR\04 - Andrii Popa.wav
Peak level 99.4 %
Extraction speed 2.6 X
Track quality 100.0 %
Test CRC 99333F8C
Copy CRC 99333F8C
Cannot be verified as accurate (confidence 5) [2C8EA306], AccurateRip returned [2BD2F3A2] (AR v2)
Copy OK
Track 5
Filename D:\AFR_EAC\Phoenix - Mugur De Fluier (Remastered Digipack Edition) (2008)[FLAC]-AFR\05 - Lasa, Lasa Nr. 2.wav
Peak level 94.6 %
Extraction speed 1.5 X
Track quality 100.0 %
Test CRC 1FEDBD36
Copy CRC 1FEDBD36
Cannot be verified as accurate (confidence 5) [11E8AFE1], AccurateRip returned [0A34B34B] (AR v2)
Copy OK
Track 6
Filename D:\AFR_EAC\Phoenix - Mugur De Fluier (Remastered Digipack Edition) (2008)[FLAC]-AFR\06 - Mica Tiganiada.wav
Peak level 96.9 %
Extraction speed 2.8 X
Track quality 100.0 %
Test CRC 0B385560
Copy CRC 0B385560
Cannot be verified as accurate (confidence 5) [23D29D95], AccurateRip returned [46BEA00F] (AR v2)
Copy OK
Track 7
Filename D:\AFR_EAC\Phoenix - Mugur De Fluier (Remastered Digipack Edition) (2008)[FLAC]-AFR\07 - Lasa, Lasa Nr. 3.wav
Peak level 94.6 %
Extraction speed 2.0 X
Track quality 100.0 %
Test CRC B69514A7
Copy CRC B69514A7
Cannot be verified as accurate (confidence 5) [7BA741E4], AccurateRip returned [ECF2045E] (AR v2)
Copy OK
Track 8
Filename D:\AFR_EAC\Phoenix - Mugur De Fluier (Remastered Digipack Edition) (2008)[FLAC]-AFR\08 - Ochii Negri, Ochi De Tigan.wav
Peak level 99.5 %
Extraction speed 2.9 X
Track quality 100.0 %
Test CRC 7160DE6D
Copy CRC 7160DE6D
Cannot be verified as accurate (confidence 5) [4F53C0C3], AccurateRip returned [DC279B09] (AR v2)
Copy OK
Track 9
Filename D:\AFR_EAC\Phoenix - Mugur De Fluier (Remastered Digipack Edition) (2008)[FLAC]-AFR\09 - Muzica Si Muzichia.wav
Peak level 98.3 %
Extraction speed 2.7 X
Track quality 100.0 %
Test CRC 98453EA6
Copy CRC 98453EA6
Cannot be verified as accurate (confidence 5) [83E17674], AccurateRip returned [98D816DC] (AR v2)
Copy OK
Track 10
Filename D:\AFR_EAC\Phoenix - Mugur De Fluier (Remastered Digipack Edition) (2008)[FLAC]-AFR\10 - Mugur De Fluier.wav
Peak level 98.0 %
Extraction speed 3.1 X
Track quality 100.0 %
Test CRC 71B6138E
Copy CRC 71B6138E
Cannot be verified as accurate (confidence 4) [3A403403], AccurateRip returned [B8910E1B] (AR v2)
Copy OK
Track 11
Filename D:\AFR_EAC\Phoenix - Mugur De Fluier (Remastered Digipack Edition) (2008)[FLAC]-AFR\11 - Lasa, Lasa Nr. 4.wav
Peak level 95.9 %
Extraction speed 1.9 X
Track quality 100.0 %
Test CRC A4455229
Copy CRC A4455229
Cannot be verified as accurate (confidence 5) [A56910AE], AccurateRip returned [F52CBC6E] (AR v2)
Copy OK
Track 12
Filename D:\AFR_EAC\Phoenix - Mugur De Fluier (Remastered Digipack Edition) (2008)[FLAC]-AFR\12 - Anule, Hanule.wav
Peak level 94.8 %
Extraction speed 3.4 X
Track quality 100.0 %
Test CRC AADC4BAF
Copy CRC AADC4BAF
Cannot be verified as accurate (confidence 5) [3684FD07], AccurateRip returned [8F53BE30] (AR v2)
Copy OK
Track 13
Filename D:\AFR_EAC\Phoenix - Mugur De Fluier (Remastered Digipack Edition) (2008)[FLAC]-AFR\13 - Lasa, Lasa Nr. 5.wav
Peak level 94.6 %
Extraction speed 1.3 X
Track quality 99.7 %
Test CRC 7BE68489
Copy CRC 7BE68489
Cannot be verified as accurate (confidence 5) [23222FB7], AccurateRip returned [131F96CE] (AR v2)
Copy OK
Track 14
Filename D:\AFR_EAC\Phoenix - Mugur De Fluier (Remastered Digipack Edition) (2008)[FLAC]-AFR\14 - Dansul Codrilor.wav
Peak level 100.0 %
Extraction speed 3.6 X
Track quality 100.0 %
Test CRC 052EC972
Copy CRC 052EC972
Cannot be verified as accurate (confidence 4) [E65B79A5], AccurateRip returned [18474234] (AR v2)
Copy OK
No tracks could be verified as accurate
You may have a different pressing from the one(s) in the database
No errors occurred
End of status report
==== Log checksum 7537A4CC78D3B756C69642E4BA835452EEF0A50F7529E90A402225BFAF8A8008 ====

Содержание индексной карты (.CUE)

REM GENRE "Classic Rock"
REM DATE 2008
REM DISCID B00AC70E
REM COMMENT "ExactAudioCopy v1.0b3"
FILE "01 - Lasa, Lasa Nr. 1.wav" WAVE
TRACK 01 AUDIO
INDEX 01 00:00:00
FILE "02 - Pavel Chinezu, Leat 1479.wav" WAVE
TRACK 02 AUDIO
INDEX 01 00:00:00
FILE "03 - Strunga.wav" WAVE
TRACK 03 AUDIO
INDEX 01 00:00:00
FILE "04 - Andrii Popa.wav" WAVE
TRACK 04 AUDIO
INDEX 01 00:00:00
FILE "05 - Lasa, Lasa Nr. 2.wav" WAVE
TRACK 05 AUDIO
INDEX 01 00:00:00
FILE "06 - Mica Tiganiada.wav" WAVE
TRACK 06 AUDIO
INDEX 01 00:00:00
FILE "07 - Lasa, Lasa Nr. 3.wav" WAVE
TRACK 07 AUDIO
INDEX 01 00:00:00
FILE "08 - Ochii Negri, Ochi De Tigan.wav" WAVE
TRACK 08 AUDIO
INDEX 01 00:00:00
FILE "09 - Muzica Si Muzichia.wav" WAVE
TRACK 09 AUDIO
INDEX 01 00:00:00
FILE "10 - Mugur De Fluier.wav" WAVE
TRACK 10 AUDIO
INDEX 01 00:00:00
FILE "11 - Lasa, Lasa Nr. 4.wav" WAVE
TRACK 11 AUDIO
INDEX 01 00:00:00
FILE "12 - Anule, Hanule.wav" WAVE
TRACK 12 AUDIO
INDEX 01 00:00:00
FILE "13 - Lasa, Lasa Nr. 5.wav" WAVE
TRACK 13 AUDIO
INDEX 01 00:00:00
FILE "14 - Dansul Codrilor.wav" WAVE
TRACK 14 AUDIO
INDEX 01 00:00:00

Лог проверки качества

AUDIOCHECKER v2.0 beta (build 457) - by Dester - [email protected]
~~~~~~~~~~~~~~~~~~~~~~~~~~~~~~~~~~
-=== DO NOT EDIT THIS FILE! ===-
Path: ...\1974. Phoenix - Mugur De Fluier {2008, Romania, Electrecord EDC 258}
01 -=- 01 - Lasa, Lasa Nr. 1.flac -=- CDDA (100%)
02 -=- 02 - Pavel Chinezu, Leat 1479.flac -=- CDDA (100%)
03 -=- 03 - Strunga.flac -=- CDDA (100%)
04 -=- 04 - Andrii Popa.flac -=- CDDA (100%)
05 -=- 05 - Lasa, Lasa Nr. 2.flac -=- CDDA (99%)
06 -=- 06 - Mica Tiganiada.flac -=- CDDA (100%)
07 -=- 07 - Lasa, Lasa Nr. 3.flac -=- CDDA (100%)
08 -=- 08 - Ochii Negri, Ochi De Tigan.flac -=- CDDA (100%)
09 -=- 09 - Muzica Si Muzichia.flac -=- CDDA (99%)
10 -=- 10 - Mugur De Fluier.flac -=- CDDA (100%)
11 -=- 11 - Lasa, Lasa Nr. 4.flac -=- CDDA (100%)
12 -=- 12 - Anule, Hanule.flac -=- CDDA (100%)
13 -=- 13 - Lasa, Lasa Nr. 5.flac -=- CDDA (100%)
14 -=- 14 - Dansul Codrilor.flac -=- CDDA (99%)
Summary 99,79% CDDA

Об альбоме (сборнике)

https://www.discogs.com/Phoenix-Mugur-De-Fluier/release/2928883

1975. Phoenix - Cantafabule {2007, US, Second Harvest 413}

Страна-производитель диска: US
Год первого выпуска: 1975
Год настоящего издания: 2007
Издатель (лейбл): Second Harvest 413
Номер по каталогу: 413
Format: CD, Album, Reissue
Аудиокодек: FLAC (*.flac)
Тип рипа: image+.cue
Битрейт аудио: lossless
Продолжительность: 01:09:25
Источник (релизер): ed2k
Наличие сканов в содержимом раздачи: да
Треклист:
01. Invocatie (010:13)
02. Norocul Inorogului (03:19)
03. Scara Scarabeului (02:20)
04. Definul, Dulce Dulful Nostru (05:49)
05. Uciderea Balaurului (04:35)
06. Stima Casei (02:21)
07. Pasărea Calandrinon (05:50)
08. Filip Si Cerbul (04:30)
09. Vasiliscul Si Aspida (03:55)
10. Sirena (03:45)
11. Pasarea Roc...K And Roll (05:32)
12. Cîntic-Lu Cucuveaua-Lliei (07:07)
13. Zoomahia (06:04)
14. Phoenix (03:44)

Лог создания рипа

Exact Audio Copy V0.99 prebeta 3 from 28. July 2007
EAC extraction logfile from 8. January 2008, 16:14
Phoenix / Cantafabule
Used drive : LITE-ON DVDRW LH-20A1P Adapter: 0 ID: 2
Read mode : Secure
Utilize accurate stream : Yes
Defeat audio cache : Yes
Make use of C2 pointers : No
Read offset correction : 6
Overread into Lead-In and Lead-Out : No
Fill up missing offset samples with silence : Yes
Delete leading and trailing silent blocks : No
Null samples used in CRC calculations : Yes
Used interface : Installed external ASPI interface
Used output format : Internal WAV Routines
Sample format : 44.100 Hz; 16 Bit; Stereo
TOC of the extracted CD
Track | Start | Length | Start sector | End sector
---------------------------------------------------------
1 | 0:00.00 | 10:14.73 | 0 | 46122
2 | 10:14.73 | 3:19.31 | 46123 | 61078
3 | 13:34.29 | 2:21.46 | 61079 | 71699
4 | 15:56.00 | 5:49.19 | 71700 | 97893
5 | 21:45.19 | 4:36.62 | 97894 | 118655
6 | 26:22.06 | 2:23.43 | 118656 | 129423
7 | 28:45.49 | 5:51.71 | 129424 | 155819
8 | 34:37.45 | 4:30.61 | 155820 | 176130
9 | 39:08.31 | 3:57.06 | 176131 | 193911
10 | 43:05.37 | 3:45.73 | 193912 | 210859
11 | 46:51.35 | 5:34.41 | 210860 | 235950
12 | 52:26.01 | 7:07.01 | 235951 | 267976
13 | 59:33.02 | 6:04.52 | 267977 | 295328
14 | 65:37.54 | 3:47.56 | 295329 | 312409
Range status and errors
Selected range
Filename D:\flogger77\Phoenix - Cantafabule.wav
Peak level 97.7 %
Range quality 100.0 %
Copy CRC 90529EA3
Copy OK
No errors occurred
AccurateRip summary
Track 1 not present in database
Track 2 not present in database
Track 3 not present in database
Track 4 not present in database
Track 5 not present in database
Track 6 not present in database
Track 7 not present in database
Track 8 not present in database
Track 9 not present in database
Track 10 not present in database
Track 11 not present in database
Track 12 not present in database
Track 13 not present in database
Track 14 not present in database
None of the tracks are present in the AccurateRip database
End of status report

Содержание индексной карты (.CUE)

REM DISCID DE10450E
REM COMMENT "ExactAudioCopy v0.99pb3"
PERFORMER "Phoenix"
TITLE "Cantafabule"
FILE "Phoenix - Cantafabule.flac" WAVE
TRACK 01 AUDIO
TITLE "Invocatie"
PERFORMER "Phoenix"
INDEX 01 00:00:00
TRACK 02 AUDIO
TITLE "Norocul Inorogului"
PERFORMER "Phoenix"
INDEX 01 10:14:73
TRACK 03 AUDIO
TITLE "Scara Scarabeului"
PERFORMER "Phoenix"
INDEX 01 13:34:29
TRACK 04 AUDIO
TITLE "Delfinul, Dulce Dulful Nostru"
PERFORMER "Phoenix"
INDEX 01 15:56:00
TRACK 05 AUDIO
TITLE "Uciderea Balaurului"
PERFORMER "Phoenix"
INDEX 01 21:45:19
TRACK 06 AUDIO
TITLE "Stima Casei"
PERFORMER "Phoenix"
INDEX 01 26:22:06
TRACK 07 AUDIO
TITLE "Pasarea Calandrinon"
PERFORMER "Phoenix"
INDEX 01 28:45:49
TRACK 08 AUDIO
TITLE "Filip Si Cerbul"
PERFORMER "Phoenix"
INDEX 01 34:37:45
TRACK 09 AUDIO
TITLE "Vasiliscul Si Aspida"
PERFORMER "Phoenix"
INDEX 01 39:08:31
TRACK 10 AUDIO
TITLE "Sirena"
PERFORMER "Phoenix"
INDEX 01 43:05:37
TRACK 11 AUDIO
TITLE "Pasarea Roc...K and Roll"
PERFORMER "Phoenix"
INDEX 01 46:51:35
TRACK 12 AUDIO
TITLE "Cintic-Lu a Cucuveaua-Lliei"
PERFORMER "Phoenix"
INDEX 01 52:26:01
TRACK 13 AUDIO
TITLE "Zoomahia"
PERFORMER "Phoenix"
INDEX 01 59:33:02
TRACK 14 AUDIO
TITLE "Phoenix"
PERFORMER "Phoenix"
INDEX 01 65:37:54

Об альбоме (сборнике)

https://www.discogs.com/Phoenix-Cantafabule/release/3014045

1992. SymPhoenix - Timişoara {1993, Romania, Genius CD 62831}

Страна-производитель диска: Romania
Год первого выпуска: 1992
Год настоящего издания: 1993
Издатель (лейбл): Genius CD
Номер по каталогу: 62831
Format: CD, Album, Reissue
Аудиокодек: FLAC (*.flac)
Тип рипа: image+.cue
Битрейт аудио: lossless
Продолжительность: 01:07:16
Источник (релизер): e-rock.ru
Наличие сканов в содержимом раздачи: да
Треклист:
01. Timişoara (03:45)
02. Tamara (04:48)
03. Mica Ţiganiadă (04:45)
04. Nunta (03:49)
05. Would You Follow Me...? (05:28)
06. Anule Hanule (05:36)
07. Vara (04:10)
08. Jocul (04:05)
09. Strunga (06:13)
10. Fata Verde (02:56)
11. Anotimpul 5 (04:27)
12. Stars Dance (04:53)
13. Running (03:32)
14. Te întreb Pe Tine, Soare (03:48)
15. Mugur De Fluier (04:33)

Лог создания рипа

Exact Audio Copy V0.99 prebeta 4 from 23. January 2008
EAC extraction logfile from 16. October 2008, 11:22
Phoenix / SymPhoenix - Timisoara
Used drive : HL-DT-STDVDRAM GSA-H10N Adapter: 0 ID: 0
Read mode : Secure
Utilize accurate stream : Yes
Defeat audio cache : Yes
Make use of C2 pointers : No
Read offset correction : 667
Overread into Lead-In and Lead-Out : No
Fill up missing offset samples with silence : Yes
Delete leading and trailing silent blocks : No
Null samples used in CRC calculations : Yes
Used interface : Native Win32 interface for Win NT & 2000
Used output format : User Defined Encoder
Selected bitrate : 768 kBit/s
Quality : High
Add ID3 tag : No
Command line compressor : C:\Program Files\Exact Audio Copy\FLAC\FLAC.EXE
Additional command line options : --best -V -T "ARTIST=%a" -T "TITLE=%t" -T "ALBUM=%g" -T "DATE=%y" -T "TRACKNUMBER=%n" -T "GENRE=%m" -T "COMMENT=%e" %s -o %d
TOC of the extracted CD
Track | Start | Length | Start sector | End sector
---------------------------------------------------------
1 | 0:00.00 | 3:47.30 | 0 | 17054
2 | 3:47.30 | 4:50.62 | 17055 | 38866
3 | 8:38.17 | 4:27.48 | 38867 | 58939
4 | 13:05.65 | 3:54.27 | 58940 | 76516
5 | 17:00.17 | 5:31.03 | 76517 | 101344
6 | 22:31.20 | 5:38.60 | 101345 | 126754
7 | 28:10.05 | 4:18.50 | 126755 | 146154
8 | 32:28.55 | 4:06.05 | 146155 | 164609
9 | 36:34.60 | 6:15.57 | 164610 | 192791
10 | 42:50.42 | 2:58.40 | 192792 | 206181
11 | 45:49.07 | 4:33.63 | 206182 | 226719
12 | 50:22.70 | 4:54.62 | 226720 | 248831
13 | 55:17.57 | 3:34.68 | 248832 | 264949
14 | 58:52.50 | 3:49.47 | 264950 | 282171
15 | 62:42.22 | 4:34.08 | 282172 | 302729
Range status and errors
Selected range
Filename C:\Documents and Settings\sbesson\Bureau\SymPhoenix - Timisoara.wav
Peak level 100.0 %
Range quality 100.0 %
Copy CRC 4DA92336
Copy OK
No errors occurred
AccurateRip summary
Track 1 not present in database
Track 2 not present in database
Track 3 not present in database
Track 4 not present in database
Track 5 not present in database
Track 6 not present in database
Track 7 not present in database
Track 8 not present in database
Track 9 not present in database
Track 10 not present in database
Track 11 not present in database
Track 12 not present in database
Track 13 not present in database
Track 14 not present in database
Track 15 not present in database
None of the tracks are present in the AccurateRip database
End of status report

Содержание индексной карты (.CUE)

REM GENRE Rock
REM DATE 1992
REM DISCID CB0FC40F
REM COMMENT "ExactAudioCopy v0.99pb4"
PERFORMER "Phoenix"
TITLE "SymPhoenix - Timisoara"
FILE "SymPhoenix - Timisoara.flac" WAVE
TRACK 01 AUDIO
TITLE "Timisoara"
PERFORMER "Phoenix"
INDEX 01 00:00:00
TRACK 02 AUDIO
TITLE "Tamara"
PERFORMER "Phoenix"
INDEX 00 03:46:22
INDEX 01 03:47:30
TRACK 03 AUDIO
TITLE "Mica Tiganiada"
PERFORMER "Phoenix"
INDEX 00 08:37:07
INDEX 01 08:38:17
TRACK 04 AUDIO
TITLE "Nunta"
PERFORMER "Phoenix"
INDEX 00 13:04:55
INDEX 01 13:05:65
TRACK 05 AUDIO
TITLE "Would You Follow Me... ?"
PERFORMER "Phoenix"
INDEX 00 16:55:70
INDEX 01 17:00:17
TRACK 06 AUDIO
TITLE "Anule Hanule"
PERFORMER "Phoenix"
INDEX 00 22:30:12
INDEX 01 22:31:20
TRACK 07 AUDIO
TITLE "Vara"
PERFORMER "Phoenix"
INDEX 00 28:08:70
INDEX 01 28:10:05
TRACK 08 AUDIO
TITLE "Jocul"
PERFORMER "Phoenix"
INDEX 00 32:21:35
INDEX 01 32:28:55
TRACK 09 AUDIO
TITLE "Strunga"
PERFORMER "Phoenix"
INDEX 01 36:34:60
TRACK 10 AUDIO
TITLE "Fata Verde"
PERFORMER "Phoenix"
INDEX 00 42:48:47
INDEX 01 42:50:42
TRACK 11 AUDIO
TITLE "Anotimpul 5"
PERFORMER "Phoenix"
INDEX 00 45:47:42
INDEX 01 45:49:07
TRACK 12 AUDIO
TITLE "Stars Dance"
PERFORMER "Phoenix"
INDEX 00 50:17:25
INDEX 01 50:22:70
TRACK 13 AUDIO
TITLE "Running"
PERFORMER "Phoenix"
INDEX 01 55:17:57
TRACK 14 AUDIO
TITLE "Te Intreb Pe Tine Soare"
PERFORMER "Phoenix"
INDEX 00 58:51:32
INDEX 01 58:52:50
TRACK 15 AUDIO
TITLE "Mugur De Fluier"
PERFORMER "Phoenix"
INDEX 01 62:42:22
Доп. информация: Уникальный альбом, записанный с симфоническим оркестром и хором. В программе, в основном, старые вещи, но есть и несколько новых.

Комментарий [b]30277[/b]

Роскошный симфо-роковый альбом румынской группы Phoenix неубиваемо существующей аж с 1962 года.
А убивать их политическая цензура в феодально-коммунистической Румынии пробывала неоднократно.
Практическо все восмидесятые годы музыканты провели в вынужденой эмиграции в Германии, и вернулись домой только после падения режима Чеушеску. Фениксы они такие - востают из пепла. Их - ..., они - крепчают.
Общее впечатление: мощно и энергично. Годочков-то ребятам уже немало, а как зажигают!
Фолка и симфонизма здесь поровну. Много скрипки, как ведущего инструмента, много хорового бек-вокала. Примерно две трети материала - ранее созданные композиции, но в прежних альбомах звучало это совершенно иначе, с другой (более мягко и почвенно) энергетикой. Так что можно, с некоторой натяжкой, считать всю программу новой. Кстати, местами саунд напомнил мне альбом Scorpions с симфоническим оркестром " Moment Of Glory". Возможно, для кого-то это послужит плохой рекламой, но что есть, то есть.

Об альбоме (сборнике)

https://www.discogs.com/SymPhoenix-Timisoara/release/5515745

1993. Phoenix - Evergreens {1995, Romania, Electrecord EDC 167}

Страна-производитель диска: Romania
Год первого выпуска: 1993
Год настоящего издания: 1995
Издатель (лейбл): Electrecord
Номер по каталогу: EDC 167
Format: CD, Compilation
Аудиокодек: FLAC (*.flac)
Тип рипа: image+.cue
Битрейт аудио: lossless
Продолжительность: 01:16:56
Источник (релизер): e-rock.ru
Наличие сканов в содержимом раздачи: да
Треклист:
01. Vremuri (03:13)
02. Te Întreb Pe Tine, Soare (02:48)
03. Canarul (02:55)
04. A Oilor (Instrumental) (01:04)
05. Jocul Timpului (Instrumental) (03:18)
06. Introducere (Instrumental) (01:02)
07. Păpărugă (02:35)
08. Vara (04:20)
09. Toamna (04:31)
10. Introducere (01:14)
11. Jocul Caprelor (Instrumental) (01:30)
12. Nunta (04:18)
13. Balada "Negru-Vodă" (14:53)
14. Pseudo-Morgana (Instrumental) (06:47)
15. Preludiu (01:28)
16. Strunga (07:22)
17. Andrii Popa (03:09)
18. Mica Țiganiadă (04:06)
19. Muzica Și Muzikia (02:10)
20. Mugur De Fluier (03:58)

Лог создания рипа

Exact Audio Copy V0.99 prebeta 4 from 23. January 2008
Отчёт EAC об извлечении, выполненном 18. июля 2009, 22:12
Phoenix / Evergreens
Дисковод: _NEC DVD_RW ND-4570A Adapter: 1 ID: 1
Режим чтения : Достоверность
Использование точного потока : Да
Отключение кэша аудио : Да
Использование указателей C2 : Нет
Коррекция смещения при чтении : 48
Способность читать области Lead-in и Lead-out : Нет
Заполнение пропущенных сэмплов тишиной : Да
Удаление блоков с тишиной в начале и конце : Нет
При вычислениях CRC использовались нулевые сэмплы : Да
Интерфейс : Встроенный Win32-интерфейс для Win NT/2000
Выходной формат : Внутренние WAV-операции
Формат сэмплов : 44.100 Гц; 16 бит; стерео
TOC извлечённого CD
Трек | Старт | Длительность | Начальный сектор | Конечный сектор
---------------------------------------------------------------------
1 | 0:00.32 | 3:16.63 | 32 | 14794
2 | 3:17.20 | 2:50.55 | 14795 | 27599
3 | 6:08.00 | 2:27.25 | 27600 | 38649
4 | 8:35.25 | 1:05.40 | 38650 | 43564
5 | 9:40.65 | 3:18.35 | 43565 | 58449
6 | 12:59.25 | 1:03.22 | 58450 | 63196
7 | 14:02.47 | 2:35.40 | 63197 | 74861
8 | 16:38.12 | 4:21.50 | 74862 | 94486
9 | 20:59.62 | 4:31.43 | 94487 | 114854
10 | 25:31.30 | 1:15.07 | 114855 | 120486
11 | 26:46.37 | 1:35.28 | 120487 | 127639
12 | 28:21.65 | 4:19.50 | 127640 | 147114
13 | 32:41.40 | 14:56.37 | 147115 | 214351
14 | 47:38.02 | 6:49.25 | 214352 | 245051
15 | 54:27.27 | 1:32.48 | 245052 | 251999
16 | 56:00.00 | 7:24.12 | 252000 | 285311
17 | 63:24.12 | 3:13.35 | 285312 | 299821
18 | 66:37.47 | 4:09.43 | 299822 | 318539
19 | 70:47.15 | 2:11.35 | 318540 | 328399
20 | 72:58.50 | 3:57.72 | 328400 | 346246
Характеристики диапазона извлечения и сообщения об ошибках
Выбранный диапазон
Имя файла F:\DISC E\CD Images\Phoenix - Evergreens.wav
Пиковый уровень 96.8 %
Качество диапазона 100.0 %
CRC копии B0EA7440
Копирование... OK
Ошибок не произошло
Конец отчёта

Содержание индексной карты (.CUE)

REM DISCID 23120814
REM COMMENT "ExactAudioCopy v0.99pb4"
PERFORMER "Phoenix"
TITLE "Evergreens"
FILE "Phoenix - Evergreens.wav" WAVE
TRACK 01 AUDIO
TITLE "Vremuri"
PERFORMER "Phoenix"
INDEX 00 00:00:00
INDEX 01 00:00:32
TRACK 02 AUDIO
TITLE "Te intreb pe tine, soare"
PERFORMER "Phoenix"
INDEX 01 03:17:20
TRACK 03 AUDIO
TITLE "Canarul"
PERFORMER "Phoenix"
INDEX 01 06:08:00
TRACK 04 AUDIO
TITLE "Ciclul anotimpurilor - Preludio: A oilor"
PERFORMER "Phoenix"
INDEX 01 08:35:25
TRACK 05 AUDIO
TITLE "Ciclul anotimpurilor - Preludio: Jocul timpului"
PERFORMER "Phoenix"
INDEX 01 09:40:65
TRACK 06 AUDIO
TITLE "Ciclul anotimpurilor - Primavara: Introducere"
PERFORMER "Phoenix"
INDEX 01 12:59:25
TRACK 07 AUDIO
TITLE "Ciclul anotimpurilor - Primavara: Paparuga"
PERFORMER "Phoenix"
INDEX 01 14:02:47
TRACK 08 AUDIO
TITLE "Ciclul anotimpurilor - Vara "
PERFORMER "Phoenix"
INDEX 01 16:38:12
TRACK 09 AUDIO
TITLE "Ciclul anotimpurilor - Toamna "
PERFORMER "Phoenix"
INDEX 01 20:59:62
TRACK 10 AUDIO
TITLE "Ciclul anotimpurilor - Iarna: Introducere"
PERFORMER "Phoenix"
INDEX 01 25:31:30
TRACK 11 AUDIO
TITLE "Ciclul anotimpurilor - Iarna: Jocul caprelor"
PERFORMER "Phoenix"
INDEX 01 26:46:37
TRACK 12 AUDIO
TITLE "Nunta"
PERFORMER "Phoenix"
INDEX 01 28:21:65
TRACK 13 AUDIO
TITLE "Balada 'Negru-Voda'"
PERFORMER "Phoenix"
INDEX 01 32:41:40
TRACK 14 AUDIO
TITLE "Pseudo-Morgana"
PERFORMER "Phoenix"
INDEX 01 47:38:02
TRACK 15 AUDIO
TITLE "Preludiu"
PERFORMER "Phoenix"
INDEX 01 54:27:27
TRACK 16 AUDIO
TITLE "Strunga"
PERFORMER "Phoenix"
INDEX 01 56:00:00
TRACK 17 AUDIO
TITLE "Andrii Popa"
PERFORMER "Phoenix"
INDEX 01 63:24:12
TRACK 18 AUDIO
TITLE "Mica Tiganiada"
PERFORMER "Phoenix"
INDEX 01 66:37:47
TRACK 19 AUDIO
TITLE "Muzica si muzikia"
PERFORMER "Phoenix"
INDEX 01 70:47:15
TRACK 20 AUDIO
TITLE "Mugur de fluier"
PERFORMER "Phoenix"
INDEX 01 72:58:50

Об альбоме (сборнике)

https://www.discogs.com/Phoenix-Evergreens/release/1095027

2014. Phoenix - Vino, Tepes! {2014, Romania, Self-released none}

Страна-производитель диска: Romania
Год первого выпуска: 2014
Год настоящего издания: 2014
Издатель (лейбл): Self-released
Номер по каталогу: none
Format: CD, Album
Аудиокодек: FLAC (*.flac)
Тип рипа: image+.cue
Битрейт аудио: lossless
Продолжительность: 00:38:10
Источник (релизер): What.CD (chiola)
Наличие сканов в содержимом раздачи: да
Треклист:
01. Bucovina (05:15)
02. Cântec (Ştefan și Mihai) (04:05)
03. Mircea (Scrisoarea a III-a) (03:01)
04. Decebal către popor (06:17)
05. Pașa Hassan (04:04)
06. Năluca (Ştefan cel Mare) (02:53)
07. Vino, Țepeș! (03:57)
08. Phoenix (01:51)
09. Pavel Chinezu (Bonus track) (07:27)

Лог создания рипа

Exact Audio Copy V1.0 beta 3 from 29. August 2011
EAC extraction logfile from 18. December 2014, 17:11
Phoenix / Vino, Țepeș!
Used drive : HL-DT-STDVD-ROM GDRH20N Adapter: 1 ID: 0
Read mode : Secure
Utilize accurate stream : Yes
Defeat audio cache : Yes
Make use of C2 pointers : No
Read offset correction : 102
Overread into Lead-In and Lead-Out : No
Fill up missing offset samples with silence : Yes
Delete leading and trailing silent blocks : No
Null samples used in CRC calculations : Yes
Used interface : Native Win32 interface for Win NT & 2000
Used output format : User Defined Encoder
Selected bitrate : 896 kBit/s
Quality : High
Add ID3 tag : No
Command line compressor : C:\Program Files (x86)\Exact Audio Copy\Flac\flac.exe
Additional command line options : -6 -V %source%
TOC of the extracted CD
Track | Start | Length | Start sector | End sector
---------------------------------------------------------
1 | 0:00.00 | 5:17.01 | 0 | 23775
2 | 5:17.01 | 4:05.74 | 23776 | 42224
3 | 9:23.00 | 3:01.00 | 42225 | 55799
4 | 12:24.00 | 6:17.74 | 55800 | 84148
5 | 18:41.74 | 4:04.74 | 84149 | 102522
6 | 22:46.73 | 2:54.15 | 102523 | 115587
7 | 25:41.13 | 3:56.74 | 115588 | 133361
8 | 29:38.12 | 1:50.73 | 133362 | 141684
9 | 31:29.10 | 6:41.22 | 141685 | 171781
Range status and errors
Selected range
Filename C:\EAC\PHOENIX - Vino, Țepeș! (2014)\PHOENIX - Vino, Țepeș!.wav
Peak level 97.8 %
Extraction speed 7.8 X
Range quality 100.0 %
Copy CRC A6341560
Copy OK
No errors occurred
End of status report
---- CUETools DB Plugin V2.1.3
[CTDB TOCID: IcGLLzuHGQAIoSHZB4Bn2Vrx_X8-] disk not present in database, Submit result: IcGLLzuHGQAIoSHZB4Bn2Vrx_X8- has been uploaded
==== Log checksum D17650923AA8DFEEA9D6482687EF952FA8037355A2D30FDE50B640C65C49E9A9 ====

Содержание индексной карты (.CUE)

REM GENRE folk/rock
REM DATE 2014
REM DISCID 7908F209
REM COMMENT "ExactAudioCopy v1.0b3"
PERFORMER "Phoenix"
TITLE "Vino, Țepeș!"
FILE "PHOENIX - Vino, Tepes!.flac" WAVE
TRACK 01 AUDIO
TITLE "Bucovina"
PERFORMER "Phoenix"
INDEX 01 00:00:00
TRACK 02 AUDIO
TITLE "Cântec (Stefan .i Mihai)"
PERFORMER "Phoenix"
INDEX 00 05:15:01
INDEX 01 05:17:01
TRACK 03 AUDIO
TITLE "Mircea (Scrisoarea a III-a)"
PERFORMER "Phoenix"
INDEX 00 09:21:00
INDEX 01 09:23:00
TRACK 04 AUDIO
TITLE "Decebal catre popor"
PERFORMER "Phoenix"
INDEX 00 12:22:00
INDEX 01 12:24:00
TRACK 05 AUDIO
TITLE "Pa.a Hassan"
PERFORMER "Phoenix"
INDEX 00 18:41:65
INDEX 01 18:41:74
TRACK 06 AUDIO
TITLE "Naluca (Stefan cel Mare)"
PERFORMER "Phoenix"
INDEX 00 22:44:73
INDEX 01 22:46:73
TRACK 07 AUDIO
TITLE "Vino, Țepeș!"
PERFORMER "Phoenix"
INDEX 00 25:39:13
INDEX 01 25:41:13
TRACK 08 AUDIO
TITLE "Phoenix"
PERFORMER "Phoenix"
INDEX 00 29:36:12
INDEX 01 29:38:12
TRACK 09 AUDIO
TITLE "Pavel Chinezu (bonus track)"
PERFORMER "Phoenix"
INDEX 00 31:27:10
INDEX 01 31:29:10

Лог проверки качества

PERFORMER: auCDtect Task Manager, ver. 1.6.0 RC1 build 1.6.0.1
Copyright (c) 2008-2010 y-soft. All rights reserved
http://y-soft.org
ANALYZER: auCDtect: CD records authenticity detector, version 0.8.2
Copyright (c) 2004 Oleg Berngardt. All rights reserved.
Copyright (c) 2004 Alexander Djourik. All rights reserved.
FILE: PHOENIX - Vino, Tepes!.flac
Size: 267927687 Hash: 72D41E1AB4E198A2434ECEAD035F815B Accuracy: -m0
Conclusion: MPEG 95%
Signature: D7B728059C1E916E7C81A7A0DA5F1C59084DC864

Скриншот спектра частот

Доп. информация: Проверка на частоты показала, что это MPEG 95%. Поэтому проверил ещё и Adobe Audition 3.0.
Compilations

2008. Phoenix - Muzica De Colectie {2008, Romania, Jurnalul National vol. 68}

Страна-производитель диска: Romania
Год первого выпуска: 2008
Год настоящего издания: 2008
Издатель (лейбл): Jurnalul National
Номер по каталогу: vol. 68
Format: CD, Compilation
Аудиокодек: FLAC (*.flac)
Тип рипа: tracks+.cue
Битрейт аудио: lossless
Продолжительность: 01:15:19
Источник (релизер): e-rock.ru
Наличие сканов в содержимом раздачи: да
Треклист:
01. Vremuri (03:13)
02. Nebunul Cu Ochii Închiși (03:05)
03. Floarea Stancilor (03:03)
04. Ar Vrea Un Eschimos (02:25)
05. Mugur De Fluier (03:59)
06. Strunga (07:24)
07. Fată Verde (02:58)
08. Mica Țiganiadă (04:27)
09. Tamara (04:50)
10. Orujo (03:59)
11. To My Brothers (04:12)
12. Hăituit (03:20)
13. Fluier În Cer (04:27)
14. Pasărea De Foc (03:48)
15. În Umbra Marelui URSS (05:57)
16. Baba Novak (04:14)
17. Apocalipsa (04:53)
18. De-a Lungul... Sârba-n Căruță, Ciocârlia (05:55)

Лог создания рипа

Exact Audio Copy V0.99 prebeta 4 from 23. January 2008
EAC extraction logfile from 26. July 2009, 15:06
Phoenix / Muzica de colectie nr.68
Used drive : ASUS DRW-1608P3S Adapter: 0 ID: 1
Read mode : Secure
Utilize accurate stream : Yes
Defeat audio cache : Yes
Make use of C2 pointers : No
Read offset correction : 48
Overread into Lead-In and Lead-Out : No
Fill up missing offset samples with silence : Yes
Delete leading and trailing silent blocks : No
Null samples used in CRC calculations : Yes
Used interface : Installed external ASPI interface
Gap handling : Appended to previous track
Used output format : User Defined Encoder
Selected bitrate : 128 kBit/s
Quality : High
Add ID3 tag : No
Command line compressor : C:\Program Files\FLAC\flac.exe
Additional command line options : -V -8 -T "artist=%a" -T "title=%t" -T "album=%g" -T "date=%y" -T "tracknumber=%n" -T "genre=%m" %s
TOC of the extracted CD
Track | Start | Length | Start sector | End sector
---------------------------------------------------------
1 | 0:00.00 | 3:14.17 | 0 | 14566
2 | 3:14.17 | 3:04.73 | 14567 | 28439
3 | 6:19.15 | 3:01.12 | 28440 | 42026
4 | 9:20.27 | 2:24.13 | 42027 | 52839
5 | 11:44.40 | 3:57.47 | 52840 | 70661
6 | 15:42.12 | 7:23.23 | 70662 | 103909
7 | 23:05.35 | 2:58.41 | 103910 | 117300
8 | 26:04.01 | 3:32.51 | 117301 | 133251
9 | 29:36.52 | 4:51.08 | 133252 | 155084
10 | 34:27.60 | 3:59.71 | 155085 | 173080
11 | 38:27.56 | 4:12.70 | 173081 | 192050
12 | 42:40.51 | 3:20.40 | 192051 | 207090
13 | 46:01.16 | 4:27.68 | 207091 | 227183
14 | 50:29.09 | 3:48.34 | 227184 | 244317
15 | 54:17.43 | 5:57.66 | 244318 | 271158
16 | 60:15.34 | 4:15.04 | 271159 | 290287
17 | 64:30.38 | 4:53.28 | 290288 | 312290
18 | 69:23.66 | 5:55.69 | 312291 | 338984
Track 1
Filename C:\EAC 4 mt\Phoenix - Muzica de colectie nr.68 -(mag)- 2008 - MT\01 - Vremuri.wav
Pre-gap length 0:00:02.00
Peak level 92.2 %
Track quality 100.0 %
Test CRC 65753675
Copy CRC 65753675
Track not present in AccurateRip database
Copy OK
Track 2
Filename C:\EAC 4 mt\Phoenix - Muzica de colectie nr.68 -(mag)- 2008 - MT\02 - Nebunul cu ochi inchisi.wav
Peak level 97.7 %
Track quality 99.9 %
Test CRC 70D554A6
Copy CRC 70D554A6
Track not present in AccurateRip database
Copy OK
Track 3
Filename C:\EAC 4 mt\Phoenix - Muzica de colectie nr.68 -(mag)- 2008 - MT\03 - Floarea stancilor.wav
Peak level 97.7 %
Track quality 100.0 %
Test CRC 5C27B9B3
Copy CRC 5C27B9B3
Track not present in AccurateRip database
Copy OK
Track 4
Filename C:\EAC 4 mt\Phoenix - Muzica de colectie nr.68 -(mag)- 2008 - MT\04 - Ar vrea un eschimos.wav
Peak level 92.2 %
Track quality 100.0 %
Test CRC 0B987F0E
Copy CRC 0B987F0E
Track not present in AccurateRip database
Copy OK
Track 5
Filename C:\EAC 4 mt\Phoenix - Muzica de colectie nr.68 -(mag)- 2008 - MT\05 - Mugur de fluier.wav
Peak level 98.0 %
Track quality 100.0 %
Test CRC FB6BB893
Copy CRC FB6BB893
Track not present in AccurateRip database
Copy OK
Track 6
Filename C:\EAC 4 mt\Phoenix - Muzica de colectie nr.68 -(mag)- 2008 - MT\06 - Strunga.wav
Peak level 97.3 %
Track quality 99.9 %
Test CRC 1E3EC053
Copy CRC 1E3EC053
Track not present in AccurateRip database
Copy OK
Track 7
Filename C:\EAC 4 mt\Phoenix - Muzica de colectie nr.68 -(mag)- 2008 - MT\07 - Fata verde.wav
Peak level 97.7 %
Track quality 100.0 %
Test CRC E0A77927
Copy CRC E0A77927
Track not present in AccurateRip database
Copy OK
Track 8
Filename C:\EAC 4 mt\Phoenix - Muzica de colectie nr.68 -(mag)- 2008 - MT\08 - Mica tiganiada.wav
Peak level 97.7 %
Track quality 100.0 %
Test CRC 9AF8A087
Copy CRC 9AF8A087
Track not present in AccurateRip database
Copy OK
Track 9
Filename C:\EAC 4 mt\Phoenix - Muzica de colectie nr.68 -(mag)- 2008 - MT\09 - Tamara.wav
Peak level 97.7 %
Track quality 100.0 %
Test CRC 971BDB94
Copy CRC 971BDB94
Track not present in AccurateRip database
Copy OK
Track 10
Filename C:\EAC 4 mt\Phoenix - Muzica de colectie nr.68 -(mag)- 2008 - MT\10 - Orujo.wav
Peak level 89.1 %
Track quality 100.0 %
Test CRC 9561D112
Copy CRC 9561D112
Track not present in AccurateRip database
Copy OK
Track 11
Filename C:\EAC 4 mt\Phoenix - Muzica de colectie nr.68 -(mag)- 2008 - MT\11 - To my brothers.wav
Peak level 79.4 %
Track quality 100.0 %
Test CRC E98990ED
Copy CRC E98990ED
Track not present in AccurateRip database
Copy OK
Track 12
Filename C:\EAC 4 mt\Phoenix - Muzica de colectie nr.68 -(mag)- 2008 - MT\12 - Haituit.wav
Peak level 96.6 %
Track quality 100.0 %
Test CRC 2964F186
Copy CRC 2964F186
Track not present in AccurateRip database
Copy OK
Track 13
Filename C:\EAC 4 mt\Phoenix - Muzica de colectie nr.68 -(mag)- 2008 - MT\13 - Fluier in cer.wav
Peak level 84.1 %
Track quality 100.0 %
Test CRC 8F56B97B
Copy CRC 8F56B97B
Track not present in AccurateRip database
Copy OK
Track 14
Filename C:\EAC 4 mt\Phoenix - Muzica de colectie nr.68 -(mag)- 2008 - MT\14 - Pasarea de foc.wav
Peak level 84.1 %
Track quality 99.9 %
Test CRC 88071327
Copy CRC 88071327
Track not present in AccurateRip database
Copy OK
Track 15
Filename C:\EAC 4 mt\Phoenix - Muzica de colectie nr.68 -(mag)- 2008 - MT\15 - In umbra marelui URSS.wav
Peak level 98.3 %
Track quality 100.0 %
Test CRC 8F3A621F
Copy CRC 8F3A621F
Track not present in AccurateRip database
Copy OK
Track 16
Filename C:\EAC 4 mt\Phoenix - Muzica de colectie nr.68 -(mag)- 2008 - MT\16 - Baba Novak.wav
Peak level 89.1 %
Track quality 100.0 %
Test CRC D2774314
Copy CRC D2774314
Track not present in AccurateRip database
Copy OK
Track 17
Filename C:\EAC 4 mt\Phoenix - Muzica de colectie nr.68 -(mag)- 2008 - MT\17 - Apocalipsa.wav
Peak level 79.4 %
Track quality 100.0 %
Test CRC 73A64F7E
Copy CRC 73A64F7E
Track not present in AccurateRip database
Copy OK
Track 18
Filename C:\EAC 4 mt\Phoenix - Muzica de colectie nr.68 -(mag)- 2008 - MT\18 - De-a lungul ... sarba-n caruta, ciocarlia.wav
Peak level 97.7 %
Track quality 100.0 %
Test CRC 6F6FCBAD
Copy CRC 6F6FCBAD
Track not present in AccurateRip database
Copy OK
None of the tracks are present in the AccurateRip database
No errors occurred
End of status report

Содержание индексной карты (.CUE)

REM GENRE Folk/Rock
REM DATE 2008
REM DISCID 1511A712
REM COMMENT "ExactAudioCopy v0.99pb4"
FILE "01 - Vremuri.wav" WAVE
TRACK 01 AUDIO
INDEX 01 00:00:00
FILE "02 - Nebunul cu ochi inchisi.wav" WAVE
TRACK 02 AUDIO
INDEX 01 00:00:00
FILE "03 - Floarea stancilor.wav" WAVE
TRACK 03 AUDIO
INDEX 01 00:00:00
FILE "04 - Ar vrea un eschimos.wav" WAVE
TRACK 04 AUDIO
INDEX 01 00:00:00
FILE "05 - Mugur de fluier.wav" WAVE
TRACK 05 AUDIO
INDEX 01 00:00:00
FILE "06 - Strunga.wav" WAVE
TRACK 06 AUDIO
INDEX 01 00:00:00
FILE "07 - Fata verde.wav" WAVE
TRACK 07 AUDIO
INDEX 01 00:00:00
FILE "08 - Mica tiganiada.wav" WAVE
TRACK 08 AUDIO
INDEX 01 00:00:00
FILE "09 - Tamara.wav" WAVE
TRACK 09 AUDIO
INDEX 01 00:00:00
FILE "10 - Orujo.wav" WAVE
TRACK 10 AUDIO
INDEX 01 00:00:00
FILE "11 - To my brothers.wav" WAVE
TRACK 11 AUDIO
INDEX 01 00:00:00
FILE "12 - Haituit.wav" WAVE
TRACK 12 AUDIO
INDEX 01 00:00:00
FILE "13 - Fluier in cer.wav" WAVE
TRACK 13 AUDIO
INDEX 01 00:00:00
FILE "14 - Pasarea de foc.wav" WAVE
TRACK 14 AUDIO
INDEX 01 00:00:00
FILE "15 - In umbra marelui URSS.wav" WAVE
TRACK 15 AUDIO
INDEX 01 00:00:00
FILE "16 - Baba Novak.wav" WAVE
TRACK 16 AUDIO
INDEX 01 00:00:00
FILE "17 - Apocalipsa.wav" WAVE
TRACK 17 AUDIO
INDEX 01 00:00:00
FILE "18 - De-a lungul ... sarba-n caruta, ciocarlia.wav" WAVE
TRACK 18 AUDIO
INDEX 01 00:00:00

Лог проверки качества

AUDIOCHECKER v2.0 beta (build 457) - by Dester - [email protected]
~~~~~~~~~~~~~~~~~~~~~~~~~~~~~~~~~~
-=== DO NOT EDIT THIS FILE! ===-
Path: ...\2008. Phoenix - Muzica De Colectie {2008, Romania, Jurnalul National vol. 68} жду
01 -=- 01 - Vremuri.flac -=- CDDA (100%)
02 -=- 02 - Nebunul cu ochi inchisi.flac -=- CDDA (100%)
03 -=- 03 - Floarea stancilor.flac -=- CDDA (100%)
04 -=- 04 - Ar vrea un eschimos.flac -=- CDDA (100%)
05 -=- 05 - Mugur de fluier.flac -=- CDDA (100%)
06 -=- 06 - Strunga.flac -=- CDDA (100%)
07 -=- 07 - Fata verde.flac -=- MPEG (79%)
08 -=- 08 - Mica tiganiada.flac -=- CDDA (100%)
09 -=- 09 - Tamara.flac -=- MPEG (100%)
10 -=- 10 - Orujo.flac -=- MPEG (95%)
11 -=- 11 - To my brothers.flac -=- MPEG (95%)
12 -=- 12 - Haituit.flac -=- MPEG (95%)
13 -=- 13 - Fluier in cer.flac -=- MPEG (95%)
14 -=- 14 - Pasarea de foc.flac -=- MPEG (95%)
15 -=- 15 - In umbra marelui URSS.flac -=- MPEG (95%)
16 -=- 16 - Baba Novak.flac -=- MPEG (95%)
17 -=- 17 - Apocalipsa.flac -=- MPEG (95%)
18 -=- 18 - De-a lungul ... sarba-n caruta, ciocarlia.flac -=- MPEG (100%)
Summary 42,28% CDDA

Скриншот спектра частот

Об альбоме (сборнике)

https://www.discogs.com/Phoenix-Phoenix/release/1550923

2008. Phoenix - Vremuri Anii 60... {2008, Romania, Electrecord EDC 257}

Страна-производитель диска: Romania
Год первого выпуска: 2008
Год настоящего издания: 2008
Издатель (лейбл): Electrecord / Phoenix Records
Номер по каталогу: EDC 257
Format: CD, Compilation, Remastered
Аудиокодек: FLAC (*.flac)
Тип рипа: tracks+.cue
Битрейт аудио: lossless
Продолжительность: 00:39:47
Источник (релизер): e-rock.ru
Наличие сканов в содержимом раздачи: да
Треклист:
01. Vremuri (03:12)
02. Totuși Sunt Ca Voi (02:13)
03. Floarea Stâncilor (03:01)
04. Ar Vrea Un Eschimos (02:23)
05. Canarul (02:21)
06. Nebunul Cu Ochii Închiși (03:03)
07. Lumina Zorilor (02:58)
08. Ulciorul (02:11)
09. Vino Să Ne Ascundem Sus În Nori (02:40)
10. Vânt Hain - Nr. 1 (04:02)
11. Mamă, Mamă (02:25)
12. Vânt Hain - Nr. 2 (03:48)
13. Miezul Nopții (04:38)

Лог создания рипа

Exact Audio Copy V1.0 beta 3 from 29. August 2011
EAC extraction logfile from 6. April 2013, 13:44
Phoenix / Vremuri - Anii 60 (Remastered Edition)
Used drive : PIONEER DVDRW DR-TD08HB Adapter: 1 ID: 0
Read mode : Secure
Utilize accurate stream : Yes
Defeat audio cache : Yes
Make use of C2 pointers : No
Read offset correction : 48
Overread into Lead-In and Lead-Out : No
Fill up missing offset samples with silence : Yes
Delete leading and trailing silent blocks : No
Null samples used in CRC calculations : Yes
Used interface : Native Win32 interface for Win NT & 2000
Gap handling : Appended to previous track
Used output format : User Defined Encoder
Selected bitrate : 1024 kBit/s
Quality : High
Add ID3 tag : No
Command line compressor : C:\Program Files (x86)\Exact Audio Copy\Flac\flac.exe
Additional command line options : -V -0 -T "artist=%artist%" -T "title=%title%" -T "album=%albumtitle%" -T "date=%year%" -T "tracknumber=%tracknr%" -T "genre=%genre%" -T "COMMENT=Released by: AVLossless Főnixek Rendje" %source%
TOC of the extracted CD
Track | Start | Length | Start sector | End sector
---------------------------------------------------------
1 | 0:00.00 | 3:16.72 | 0 | 14771
2 | 3:16.72 | 2:16.55 | 14772 | 25026
3 | 5:33.52 | 3:05.10 | 25027 | 38911
4 | 8:38.62 | 2:27.30 | 38912 | 49966
5 | 11:06.17 | 2:25.05 | 49967 | 60846
6 | 13:31.22 | 3:06.60 | 60847 | 74856
7 | 16:38.07 | 3:02.13 | 74857 | 88519
8 | 19:40.20 | 2:14.52 | 88520 | 98621
9 | 21:54.72 | 2:45.10 | 98622 | 111006
10 | 24:40.07 | 4:05.68 | 111007 | 129449
11 | 28:46.00 | 2:28.27 | 129450 | 140576
12 | 31:14.27 | 3:52.33 | 140577 | 158009
13 | 35:06.60 | 4:40.32 | 158010 | 179041
Track 1
Filename E:\AFR_04\Phoenix - Vremuri Anii 60... {Remastered Digipack Edition}(2008)[FLAC]-AFR\01 - Vremuri.wav
Pre-gap length 0:00:02.00
Peak level 87.3 %
Extraction speed 1.9 X
Track quality 100.0 %
Test CRC A9CC1339
Copy CRC A9CC1339
Cannot be verified as accurate (confidence 1) [4EB3C100], AccurateRip returned [54A43FC5] (AR v2)
Copy OK
Track 2
Filename E:\AFR_04\Phoenix - Vremuri Anii 60... {Remastered Digipack Edition}(2008)[FLAC]-AFR\02 - Totusi sunt ca voi.wav
Pre-gap length 0:00:02.93
Peak level 98.1 %
Extraction speed 1.9 X
Track quality 100.0 %
Test CRC 02E664AD
Copy CRC 02E664AD
Cannot be verified as accurate (confidence 1) [EB917FD8], AccurateRip returned [B66C48C3] (AR v2)
Copy OK
Track 3
Filename E:\AFR_04\Phoenix - Vremuri Anii 60... {Remastered Digipack Edition}(2008)[FLAC]-AFR\03 - Floarea stancilor.wav
Pre-gap length 0:00:03.20
Peak level 96.8 %
Extraction speed 2.2 X
Track quality 100.0 %
Test CRC 2DD4BC3E
Copy CRC 2DD4BC3E
Cannot be verified as accurate (confidence 1) [935DD587], AccurateRip returned [11DF5652] (AR v2)
Copy OK
Track 4
Filename E:\AFR_04\Phoenix - Vremuri Anii 60... {Remastered Digipack Edition}(2008)[FLAC]-AFR\04 - Ar vrea un eschimos.wav
Pre-gap length 0:00:03.73
Peak level 91.8 %
Extraction speed 1.8 X
Track quality 99.9 %
Test CRC 96947D2B
Copy CRC 96947D2B
Cannot be verified as accurate (confidence 1) [5097C31A], AccurateRip returned [6E6DFF0E] (AR v2)
Copy OK
Track 5
Filename E:\AFR_04\Phoenix - Vremuri Anii 60... {Remastered Digipack Edition}(2008)[FLAC]-AFR\05 - Canarul.wav
Pre-gap length 0:00:03.56
Peak level 93.4 %
Extraction speed 1.9 X
Track quality 99.9 %
Test CRC 286D0EF3
Copy CRC 286D0EF3
Cannot be verified as accurate (confidence 1) [7E8F6AD3], AccurateRip returned [7F091F18] (AR v2)
Copy OK
Track 6
Filename E:\AFR_04\Phoenix - Vremuri Anii 60... {Remastered Digipack Edition}(2008)[FLAC]-AFR\06 - Nebunul cu ochii inchisi.wav
Pre-gap length 0:00:02.56
Peak level 96.0 %
Extraction speed 2.5 X
Track quality 100.0 %
Test CRC 0EFB1FAF
Copy CRC 0EFB1FAF
Track not present in AccurateRip database
Copy OK
Track 7
Filename E:\AFR_04\Phoenix - Vremuri Anii 60... {Remastered Digipack Edition}(2008)[FLAC]-AFR\07 - Lumina zorilor.wav
Pre-gap length 0:00:02.89
Peak level 100.0 %
Extraction speed 2.6 X
Track quality 100.0 %
Test CRC 5811F394
Copy CRC 5811F394
Cannot be verified as accurate (confidence 1) [E878EF16], AccurateRip returned [8BA1E8C1] (AR v2)
Copy OK
Track 8
Filename E:\AFR_04\Phoenix - Vremuri Anii 60... {Remastered Digipack Edition}(2008)[FLAC]-AFR\08 - Ulciorul.wav
Pre-gap length 0:00:02.93
Peak level 93.7 %
Extraction speed 2.5 X
Track quality 100.0 %
Test CRC CF99DD93
Copy CRC CF99DD93
Cannot be verified as accurate (confidence 1) [AC3F43CE], AccurateRip returned [4B53FC87] (AR v2)
Copy OK
Track 9
Filename E:\AFR_04\Phoenix - Vremuri Anii 60... {Remastered Digipack Edition}(2008)[FLAC]-AFR\09 - Vino sa ne ascundem sus in nori.wav
Pre-gap length 0:00:01.86
Peak level 100.0 %
Extraction speed 2.7 X
Track quality 100.0 %
Test CRC 3A380089
Copy CRC 3A380089
Cannot be verified as accurate (confidence 1) [D52B1CCA], AccurateRip returned [398D37ED] (AR v2)
Copy OK
Track 10
Filename E:\AFR_04\Phoenix - Vremuri Anii 60... {Remastered Digipack Edition}(2008)[FLAC]-AFR\10 - Vant Hain - Nr. 1.wav
Pre-gap length 0:00:04.20
Peak level 100.0 %
Extraction speed 3.0 X
Track quality 100.0 %
Test CRC 94C815A7
Copy CRC 94C815A7
Cannot be verified as accurate (confidence 1) [115E0471], AccurateRip returned [66B004AD] (AR v2)
Copy OK
Track 11
Filename E:\AFR_04\Phoenix - Vremuri Anii 60... {Remastered Digipack Edition}(2008)[FLAC]-AFR\11 - Mama, Mama.wav
Pre-gap length 0:00:03.20
Peak level 100.0 %
Extraction speed 2.4 X
Track quality 99.9 %
Test CRC 16EE6527
Copy CRC 16EE6527
Cannot be verified as accurate (confidence 1) [FA9EAD26], AccurateRip returned [73525E46] (AR v2)
Copy OK
Track 12
Filename E:\AFR_04\Phoenix - Vremuri Anii 60... {Remastered Digipack Edition}(2008)[FLAC]-AFR\12 - Vant Hain - Nr. 2.wav
Pre-gap length 0:00:02.86
Peak level 100.0 %
Extraction speed 3.2 X
Track quality 100.0 %
Test CRC 1D0DB1FF
Copy CRC 1D0DB1FF
Track not present in AccurateRip database
Copy OK
Track 13
Filename E:\AFR_04\Phoenix - Vremuri Anii 60... {Remastered Digipack Edition}(2008)[FLAC]-AFR\13 - Miezul noptii.wav
Pre-gap length 0:00:02.86
Peak level 97.3 %
Extraction speed 3.4 X
Track quality 100.0 %
Test CRC 9191897F
Copy CRC 9191897F
Cannot be verified as accurate (confidence 1) [608FB6E0], AccurateRip returned [B92504B4] (AR v2)
Copy OK
11 track(s) could not be verified as accurate
2 track(s) not present in the AccurateRip database
No tracks could be verified as accurate
You may have a different pressing from the one(s) in the database
No errors occurred
End of status report
---- CUETools DB Plugin V2.1.3
[CTDB TOCID: SdSRR0udI4Na2ZGYjZb1G_TRK7c-] disk not present in database, Submit result: SdSRR0udI4Na2ZGYjZb1G_TRK7c- has been uploaded
==== Log checksum A3DBACDC0A038D4002307BCADCE4663B0687EF53AD8FBE6AFFA75EA9E1AB791A ====

Содержание индексной карты (.CUE)

REM GENRE Rock
REM DATE 2008
REM DISCID A009530D
REM COMMENT "ExactAudioCopy v1.0b3"
FILE "01 - Vremuri.wav" WAVE
TRACK 01 AUDIO
INDEX 01 00:00:00
TRACK 02 AUDIO
INDEX 00 03:14:02
FILE "02 - Totusi sunt ca voi.wav" WAVE
INDEX 01 00:00:00
TRACK 03 AUDIO
INDEX 00 02:13:40
FILE "03 - Floarea stancilor.wav" WAVE
INDEX 01 00:00:00
TRACK 04 AUDIO
INDEX 00 03:01:30
FILE "04 - Ar vrea un eschimos.wav" WAVE
INDEX 01 00:00:00
TRACK 05 AUDIO
INDEX 00 02:23:63
FILE "05 - Canarul.wav" WAVE
INDEX 01 00:00:00
TRACK 06 AUDIO
INDEX 00 02:22:38
FILE "06 - Nebunul cu ochii inchisi.wav" WAVE
INDEX 01 00:00:00
TRACK 07 AUDIO
INDEX 00 03:03:68
FILE "07 - Lumina zorilor.wav" WAVE
INDEX 01 00:00:00
TRACK 08 AUDIO
INDEX 00 02:59:18
FILE "08 - Ulciorul.wav" WAVE
INDEX 01 00:00:00
TRACK 09 AUDIO
INDEX 00 02:12:62
FILE "09 - Vino sa ne ascundem sus in nori.wav" WAVE
INDEX 01 00:00:00
TRACK 10 AUDIO
INDEX 00 02:40:70
FILE "10 - Vant Hain - Nr. 1.wav" WAVE
INDEX 01 00:00:00
TRACK 11 AUDIO
INDEX 00 04:02:53
FILE "11 - Mama, Mama.wav" WAVE
INDEX 01 00:00:00
TRACK 12 AUDIO
INDEX 00 02:25:37
FILE "12 - Vant Hain - Nr. 2.wav" WAVE
INDEX 01 00:00:00
TRACK 13 AUDIO
INDEX 00 03:49:43
FILE "13 - Miezul noptii.wav" WAVE
INDEX 01 00:00:00

Лог проверки качества

AUDIOCHECKER v2.0 beta (build 457) - by Dester - [email protected]
~~~~~~~~~~~~~~~~~~~~~~~~~~~~~~~~~~
-=== DO NOT EDIT THIS FILE! ===-
Path: ...\2008. Phoenix - Vremuri Anii 60... {2008, Romania, Electrecord EDC 257}
01 -=- 01 - Vremuri.flac -=- CDDA (100%)
02 -=- 02 - Totusi sunt ca voi.flac -=- CDDA (100%)
03 -=- 03 - Floarea stancilor.flac -=- CDDA (100%)
04 -=- 04 - Ar vrea un eschimos.flac -=- CDDA (100%)
05 -=- 05 - Canarul.flac -=- CDDA (100%)
06 -=- 06 - Nebunul cu ochii inchisi.flac -=- CDDA (100%)
07 -=- 07 - Lumina zorilor.flac -=- MPEG (95%)
08 -=- 08 - Ulciorul.flac -=- CDDA (100%)
09 -=- 09 - Vino sa ne ascundem sus in nori.flac -=- MPEG (95%)
10 -=- 10 - Vant Hain - Nr. 1.flac -=- MPEG (95%)
11 -=- 11 - Mama, Mama.flac -=- MPEG (95%)
12 -=- 12 - Vant Hain - Nr. 2.flac -=- CDDA (62%)
13 -=- 13 - Miezul noptii.flac -=- MPEG (92%)
Summary 60,77% CDDA

Скриншот спектра частот

Об альбоме (сборнике)

https://www.discogs.com/Phoenix-Vremuri-Anii-60/release/2939390
Singles

1999. Phoenix - Ora Hora {2000, Romania, Astra none}

Страна-производитель диска: Romania
Год первого выпуска: 1999
Год настоящего издания: 2000
Издатель (лейбл): Astra
Номер по каталогу: none
Format: CD, Single
Аудиокодек: FLAC (*.flac)
Тип рипа: tracks+.cue
Битрейт аудио: lossless
Продолжительность: 00:14:11
Источник (релизер): e-rock.ru
Наличие сканов в содержимом раздачи: да
Треклист:
01. Numai Una (05:45)
02. Iovano, Iovanke (03:49)
03. Ora, Hora (04:44)

Лог создания рипа

Exact Audio Copy V0.99 prebeta 5 from 4. May 2009
EAC extraction logfile from 19. September 2010, 17:46
Phoenix / Ora Hora
Used drive : TSSTcorpCDDVDW SH-S222A Adapter: 0 ID: 0
Read mode : Secure
Utilize accurate stream : Yes
Defeat audio cache : Yes
Make use of C2 pointers : No
Read offset correction : 6
Overread into Lead-In and Lead-Out : No
Fill up missing offset samples with silence : Yes
Delete leading and trailing silent blocks : No
Null samples used in CRC calculations : Yes
Used interface : Native Win32 interface for Win NT & 2000
Gap handling : Appended to previous track
Used output format : User Defined Encoder
Selected bitrate : 128 kBit/s
Quality : High
Add ID3 tag : No
Command line compressor : C:\Program Files\Exact Audio Copy\Flac\flac.exe
Additional command line options : -V -8 -T "artist=%a" -T "title=%t" -T "album=%g" -T "date=%y" -T "tracknumber=%n" -T "genre=%m" %s
TOC of the extracted CD
Track | Start | Length | Start sector | End sector
---------------------------------------------------------
1 | 0:00.00 | 5:43.36 | 0 | 25760
2 | 5:43.36 | 3:47.49 | 25761 | 42834
3 | 9:31.10 | 4:40.53 | 42835 | 63887
Track 1
Filename E:\Phoenix - Ora Hora (2000) [FLAC]\01 - Numai una.wav
Pre-gap length 0:00:02.00
Peak level 100.0 %
Track quality 100.0 %
Test CRC 04315946
Copy CRC 04315946
Accurately ripped (confidence 1) [1CA57E6D]
Copy OK
Track 2
Filename E:\Phoenix - Ora Hora (2000) [FLAC]\02 - Iovano Iovanke.wav
Pre-gap length 0:00:02.00
Peak level 100.0 %
Track quality 100.0 %
Test CRC C00714BC
Copy CRC C00714BC
Accurately ripped (confidence 1) [4B3B2854]
Copy OK
Track 3
Filename E:\Phoenix - Ora Hora (2000) [FLAC]\03 - Ora Hora.wav
Pre-gap length 0:00:02.00
Peak level 100.0 %
Track quality 100.0 %
Test CRC B22C5FF8
Copy CRC B22C5FF8
Accurately ripped (confidence 1) [B9A97990]
Copy OK
All tracks accurately ripped
No errors occurred
End of status report

Содержание индексной карты (.CUE)

REM GENRE rock
REM DATE 2000
REM DISCID 1D035303
REM COMMENT "ExactAudioCopy v0.99pb5"
PERFORMER "Phoenix"
TITLE "Ora Hora "
FILE "01 - Numai una.wav" WAVE
TRACK 01 AUDIO
TITLE "Numai una"
PERFORMER "Phoenix"
INDEX 01 00:00:00
TRACK 02 AUDIO
TITLE "Iovano Iovanke"
PERFORMER "Phoenix"
INDEX 00 05:41:36
FILE "02 - Iovano Iovanke.wav" WAVE
INDEX 01 00:00:00
TRACK 03 AUDIO
TITLE "Ora Hora"
PERFORMER "Phoenix"
INDEX 00 03:45:49
FILE "03 - Ora Hora.wav" WAVE
INDEX 01 00:00:00

Лог проверки качества

AUDIOCHECKER v2.0 beta (build 457) - by Dester - [email protected]
~~~~~~~~~~~~~~~~~~~~~~~~~~~~~~~~~~
-=== DO NOT EDIT THIS FILE! ===-
Path: ...\1999. Phoenix - Ora-Hora {2000, Romania, Astra none}
1 -=- 01 - Numai una.flac -=- CDDA (100%)
2 -=- 02 - Iovano Iovanke.flac -=- CDDA (100%)
3 -=- 03 - Ora Hora.flac -=- CDDA (100%)
Summary 100,00% CDDA

Об альбоме (сборнике)

https://www.discogs.com/Phoenix-Ora-Hora/release/3649709
Доп. информация: Для любителей румынской прогресивно-роковой группы Phoenix (Transsylvania Phoenix). Визитной карточкой группы считаю песню
.
Очень благодарен пользователям alex752 и 30277 за рипы, отданные для этой раздачи.

Дискография


1968. Vremuri (Old Times), EP
1969. Floarea stîncilor (The Flower of the Rocks), EP
1972. Cei ce ne-au dat nume (Those Who Gave Us a Name), LP (re-edited on CD in 1999)
1973. Meşterul Manole, EP
1974. Mugur de fluier (Flute Bud), LP (re-edited on CD in 1999)
1975. Cantofabule (Cantafables), 2LP
1981. Transsylvania, LP
1987. Ballade For You/The Lark, single
1988. Tuareg/Mr. G's Promises, single
1988. Tuareg, maxi-single
1990. Ciocîrlia/Perestroika (The Lark/Perestroika), single
1991. Remember Phoenix, LP
1992. SymPhoenix/Timișoara, CD/MC/2LP
1993. Evergreens, CD/MC
1996. Cantafabule - Bestiar, CD
1997. Anniversare 35 (35th Anniversary), CD/MC
1998. Vremuri, anii '60... (Old Times, The 60s), CD/MC
1999. Ora-Hora, Single
2000. În umbra marelui urs
2005. Baba Novak
2008. Back to the Future
2014. Vino, Țepeș!

Состав


Members
Nicolae (Nicu) Covaci - Guitar, vocals, composer, founder and leader of the band. Member since 1962.
Bogdan Bradu - Vocals. Member since 2007.
Josef (Joschi) Kappl - Bass guitar, vocals, violin, flute, composer. Member since 1971, with short interruptions.
Ovidiu Lipan (Ţăndărică) - Drums. Member since 2001, previously between 1974 and 1978, 1980-1981, then between 1984 and 1998.
Manfred (Mani) Neumann - Violin, flute, vocals. Member since 1989, previously between 1978 and 1981. Active member of the "Farfarello" band (violin, flute).
Ionut Contraş - Backing vocals, percussion. Member since 1998 . Is official manager since 2004 and Executive Producer of "Baba Novak" album.
Cristi Gram - Electric guitar. Member since 2004.
Past members
Mircea Baniciu - Vocals, guitar. 2001-2007, previously between 1971 and 1976, also sporadically during the 90\'s.
Florin (Moni) Bordeianu (1962-1970, 1977-1978) - vocals
Kamocsa Béla (1962-1970) - drums, bass guitar
Günther Reininger (1966-1971, 1974-1976) - piano, keyboards, vocals
Costin Petrescu (1972-1975, 1990) - drums
Valeriu Sepi (1971-1974) - percussion
Erlend Krauser (1976-1978) - violin, guitar
Ulli Heidelberg (1978-1980) - violin, guitar, vocals
Christoph Bank (1978) - bass
Meinolf Bauschulte (1979-1980)- drums, vocals
Volker Vaessen (1992-1993, 1999-2000) - bass guitar
Tom Buggie (1980-1981) - bass guitar
Adi Pavlovici (1962-1963) - guitar, vocals
Liviu Butoi (1970-1972) - oboe, flute
Eugen Gondi (1975) - drums

Модератору

1. Рип альбома 1975. Phoenix - Cantafabule из этой раздачи поглощает рип из раздачи http://********.org/forum/viewtopic.php?t=721366 с разрешения пользователя.

скрытый текст

От:  oparin1954   [Входящие] [Отправленные]
Кому: alex752
Добавлено: 2017-09-04 16:07
Тема: Phoenix - Cantafabule
Уважаемый alex752!
Я решил собрать коллекцию альбомов румынской группы Phoenix. Собрал уже 6 рипов (не повторы) их альбомов. Решил увеличить коллекцию за счёт альбомов на рутракере.
Прошу вашего разрешения на поглощение вашей раздачи Phoenix - Cantafabule http://********.org/forum/viewtopic.php?t=721366 и включение этого альбома в готовящуюся раздачу.
С уважением.

скрытый текст

От:  alex752   [Входящие] [Отправленные]
Кому: oparin1954
Добавлено: 2017-09-07 21:19
Тема: Re: Phoenix - Cantafabule
Можете взять, я не возражаю.
2. Рип альбома 2008. Phoenix - Muzica De Colectie {2008, Romania, Jurnalul National vol. 68} из этой раздачи поглощает рип из раздачи http://********.org/forum/viewtopic.php?t=1703259 без разрешения пользователя, т.к. пользователь не отвечает и т.к оба рипа - сторонние и одинаковые логи аккуратерип.

скрытый текст

От:  oparin1954   [Входящие] [Отправленные]
Кому: And77777
Добавлено: 2017-09-04 16:34
Тема: Phoenix - Muzica de colectie nr.68
Уважаемый And77777!
Я решил собрать коллекцию альбомов румынской группы Phoenix. Собрал уже 7 рипов (не повторы) их альбомов. Решил увеличить коллекцию за счёт альбомов на рутракере.
Прошу вашего разрешения на поглощение вашей раздачи Phoenix - Muzica de colectie nr.68 http://********.org/forum/viewtopic.php?t=2385580 и включение этого альбома в готовящуюся раздачу.
С уважением.
3. Рип альбома 1992. SymPhoenix - Timisoara {1993, Romania, Genius CD 62831} из этой раздачи поглощает рип из раздачи http://********.org/forum/viewtopic.php?t=1703259 с разрешения пользователя.

скрытый текст

От:  oparin1954   [Входящие] [Отправленные]
Кому: 30277
Добавлено: 2017-09-15 18:54
Тема: Phoenix [SymPhoenix] [Transsylvania Phoenix] - Timişoara
Уважаемый 30277!
Я собрался оформить раздачу коллекции альбомов группы Phoenix из Румынии. Набрал 7 рипов, в том числе и альбом Timişoara. Прошу разрешения поглотить вашу раздачу http://********.org/forum/viewtopic.php?t=1703259.
С уважением.

скрытый текст

От:  30277   [Входящие] [Отправленные]
Кому: oparin1954
Добавлено: 2017-09-18 17:15
Тема: Re: Phoenix [SymPhoenix] [Transsylvania Phoenix] - Timişoara
Да, конечно, делайте дискографию. Надеюсь и моя реплика об альбоме вам пригодится в оформлении раздачи.
23.09.2017 торрент перезалит. К альбому Phoenix - Vino, Tepes! - 2014 добавлены 7 рипов альбомов группы.

If you like the topic, please click share to help develop our site.

To download the file disable ad blocking, and reload the page.

disable adblock How to disable ad blocking?

Download by magnet link 2.67 GB Download Torrent

Login using:

Similar topics



   
Current time is: 19-Jul 23:47 :: All times are UTC + 3