Могучие рейнджеры / Power Rangers- Год выхода: 2017
Выпущено: США, Гонконг, Япония, Мексика, Канада, Новая Зеландия
Жанр: фантастика, боевик, приключения
Продолжительность: 02:03:58
Перевод: Профессиональный (полное дублирование)
Субтитры: Русские (форсированные) (внешние .srt*)-Режиссер:
Дин Израэлайт / Dean Israelite-В ролях:
Дакре Монтгомери, Наоми Скотт, АрДжей Сайлер, Луди Линь, Бекки Джи, Элизабет Бэнкс, Брайан Крэнстон, Билл Хэйдер, Мэтт Шайвли, Коуди Кирсли-О фильме:
Пять обычных старшеклассников узнают, что их маленький город Энджел Гроув и весь мир находятся на грани уничтожения инопланетной угрозой. Избранные судьбой наши герои быстро понимают, что они единственные, кто может спасти планету.-Релиз групп | | IMDB | КиноПоиск | Сэмпл |-Качество: BDRip [Power Rangers 2017 1080p Blu-ray Remux AVC Atmos - KRaLiMaRKo]
Формат: AVI
Видео: 720x304 (2.37:1), 23.976 fps, XviD build 67 ~1294 kbps avg, 0.25 bit/pixel
Аудио: 48 kHz, AC3 Dolby Digital, 3/2 (L,C,R,l,r) + LFE ch, ~384 kbps avg - iTunes Russia
-

Скриншоты

-

MediaInfo

Общее
Полное имя                               : D:\Moguchie_Reindzhery_2017_BDRip_iT_by_Dalemake.avi
Формат                                   : AVI
Формат/Информация                        : Audio Video Interleave
Размер файла                             : 1,46 Гбайт
Продолжительность                        : 2 ч. 3 м.
Общий поток                              : 1688 Кбит/сек
Программа кодирования                    : VirtualDubMod 1.5.10.3 | www.virtualdub-fr.org || (build 2550/release)
Библиотека кодирования                   : VirtualDubMod build 2550/release
Видео
Идентификатор                            : 0
Формат                                   : MPEG-4 Visual
Профиль формата                          : Advanced [email protected]
Параметр BVOP формата                    : 1
Параметр QPel формата                    : Нет
Параметр GMC формата                     : Без точки перехода
Параметр матрицы формата                 : Выборочная
Идентификатор кодека                     : XVID
Идентификатор кодека/Подсказка           : XviD
Продолжительность                        : 2 ч. 3 м.
Битрейт                                  : 1295 Кбит/сек
Ширина                                   : 720 пикселей
Высота                                   : 304 пикселя
Соотношение сторон                       : 2,35:1
Частота кадров                           : 23,976 кадра/сек
Цветовое пространство                    : YUV
Субдискретизация насыщенности            : 4:2:0
Битовая глубина                          : 8 бит
Тип развёртки                            : Прогрессивная
Метод сжатия                             : С потерями
Бит/(Пиксели*Кадры)                      : 0.247
Размер потока                            : 1,12 Гбайт (77%)
Библиотека кодирования                   : XviD 67
Аудио
Идентификатор                            : 1
Формат                                   : AC-3
Формат/Информация                        : Audio Coding 3
Расширение режима                        : CM (complete main)
Параметр Endianness формата              : Big
Идентификатор кодека                     : 2000
Продолжительность                        : 2 ч. 3 м.
Вид битрейта                             : Постоянный
Битрейт                                  : 384 Кбит/сек
Каналы                                   : 6 каналов
Расположение каналов                     : Front: L C R, Side: L R, LFE
Частота                                  : 48,0 КГц
Битовая глубина                          : 16 бит
Метод сжатия                             : С потерями
Размер потока                            : 340 Мбайт (23%)
Выравнивание                             : Разделение по промежуткам
Продолжительность промежутка             : 42  мс. (1,00 видеокадр)
Время предзагрузки промежутка            : 500  мс.
-

If you like the topic, please click share to help develop our site.

To download the file disable ad blocking, and reload the page.

disable adblock How to disable ad blocking?

Download by magnet link 1.46 GB Download Torrent

Login using:

Similar topics



   
Current time is: 17-Jul 05:21 :: All times are UTC + 3