Placido Domingo / Moments of Passion
Жанр: classic / vocal
Носитель: CD
Страна-производитель диска: EU
Год издания: 2006
Издатель (лейбл): Sony BMG Music Entertainment
Номер по каталогу: 82876877052
Страна исполнителя (группы): Spain
Аудио кодек: ALAC (*.m4a)
Тип рипа: tracks+.cue
Программа-конвертер: XLD
Битрейт аудио: lossless
Продолжительность: 01:05:21
Наличие сканов в содержимом раздачи: да
Тексты: вшиты частично
Источник
Треклист:
1. Welcome - Willkommen bei uns (Short Version)
2. Nessun dorma! (Turandot)
3. Granada
4. E lucevan le stelle (Tosca)
5. La donna e mobile (Rigoletto)
6. Perhaps Love
7. Se quel guerrier io fossi!. . . Celeste Aida (Aida)
8. Svegliatevi nel cor (Giulio Cesare)
9. Questa o quella (Rigoletto)
10. Dammi i colori...Recondita armonia (Tosca)
11. M'appari tutt'amor (Martha)
12. Andalucia
13. Il mio tesoro Don Giovanni (Don Giovanni)
14. Firenze e come un albero fiorito (Gianni Schicchi)
15. Recitar! Mentre preso; Vesti la giubba (I Pagliacci)
16. O soave fanciulla (La Boheme)
17. A Love Until the End of Time
18. Libiamo, nei lieti calici (La Traviata)
19. Welcome - Willkommen bei uns (Long Version)

Лог создания рипа

Exact Audio Copy V0.99 prebeta 4 from 23. January 2008
EAC extraction logfile from 2. February 2010, 14:05
Plбcido Domingo / Moments of Passion
Used drive : SONY DVD RW DW-Q28A Adapter: 3 ID: 1
Read mode : Secure
Utilize accurate stream : Yes
Defeat audio cache : Yes
Make use of C2 pointers : No
Read offset correction : 12
Overread into Lead-In and Lead-Out : No
Fill up missing offset samples with silence : Yes
Delete leading and trailing silent blocks : No
Null samples used in CRC calculations : No
Used interface : Native Win32 interface for Win NT & 2000
Used output format : User Defined Encoder
Selected bitrate : 768 kBit/s
Quality : High
Add ID3 tag : No
Command line compressor : C:\Program Files\Exact Audio Copy\FLAC\FLAC.EXE
Additional command line options : -6 -V -T "ARTIST=%a" -T "TITLE=%t" -T "ALBUM=%g" -T "DATE=%y" -T "TRACKNUMBER=%n" -T "GENRE=%m" -T "COMMENT=%e" %s -o %d
TOC of the extracted CD
Track | Start | Length | Start sector | End sector
---------------------------------------------------------
1 | 0:00.00 | 2:43.17 | 0 | 12241
2 | 2:43.17 | 2:59.71 | 12242 | 25737
3 | 5:43.13 | 4:09.33 | 25738 | 44445
4 | 9:52.46 | 3:08.23 | 44446 | 58568
5 | 13:00.69 | 2:19.52 | 58569 | 69045
6 | 15:20.46 | 3:01.36 | 69046 | 82656
7 | 18:22.07 | 4:17.04 | 82657 | 101935
8 | 22:39.11 | 5:25.62 | 101936 | 126372
9 | 28:04.73 | 1:55.05 | 126373 | 135002
10 | 30:00.03 | 3:11.50 | 135003 | 149377
11 | 33:11.53 | 3:50.53 | 149378 | 166680
12 | 37:02.31 | 2:52.40 | 166681 | 179620
13 | 39:54.71 | 4:26.00 | 179621 | 199570
14 | 44:20.71 | 2:15.66 | 199571 | 209761
15 | 46:36.62 | 4:15.32 | 209762 | 228918
16 | 50:52.19 | 4:00.03 | 228919 | 246921
17 | 54:52.22 | 3:05.05 | 246922 | 260801
18 | 57:57.27 | 3:12.65 | 260802 | 275266
19 | 61:10.17 | 4:19.57 | 275267 | 294748
Range status and errors
Selected range
Filename D:\Для torrent\Moments of PassionFLAC\Plбcido Domingo - Moments of Passion.wav
Peak level 99.4 %
Range quality 99.9 %
Test CRC 37603457
Copy CRC 37603457
Copy OK
No errors occurred
End of status report

Содержание индексной карты (.CUE)

REM DISCID 210F5913
REM COMMENT "ExactAudioCopy v0.99pb4"
PERFORMER "Plбcido Domingo"
TITLE "Moments of Passion"
FILE "Plбcido Domingo - Moments of Passion.flac" WAVE
TRACK 01 AUDIO
TITLE "Willkommen bei uns (Welcome)"
PERFORMER "Plбcido Domingo"
INDEX 01 00:00:00
TRACK 02 AUDIO
TITLE "Nessun dorma!"
PERFORMER "Plбcido Domingo"
INDEX 00 02:39:06
INDEX 01 02:43:17
TRACK 03 AUDIO
TITLE "Granada"
PERFORMER "Plбcido Domingo"
INDEX 00 05:40:60
INDEX 01 05:43:13
TRACK 04 AUDIO
TITLE "E lucevan le stelle"
PERFORMER "Plбcido Domingo"
INDEX 00 09:48:08
INDEX 01 09:52:46
TRACK 05 AUDIO
TITLE "La donna и mobile"
PERFORMER "Plбcido Domingo"
INDEX 00 12:57:34
INDEX 01 13:00:69
TRACK 06 AUDIO
TITLE "Perhaps Love"
PERFORMER "Plбcido Domingo"
INDEX 00 15:15:69
INDEX 01 15:20:46
TRACK 07 AUDIO
TITLE "Se quel guerrier io fossi! ... Celeste Aida"
PERFORMER "Plбcido Domingo"
INDEX 00 18:17:48
INDEX 01 18:22:07
TRACK 08 AUDIO
TITLE "Svegliatevi nel cor"
PERFORMER "Plбcido Domingo"
INDEX 00 22:34:50
INDEX 01 22:39:11
TRACK 09 AUDIO
TITLE "Questa o quella"
PERFORMER "Plбcido Domingo"
INDEX 00 28:01:25
INDEX 01 28:04:73
TRACK 10 AUDIO
TITLE "Dammi i colori - Recondita armonia"
PERFORMER "Plбcido Domingo"
INDEX 00 29:54:49
INDEX 01 30:00:03
TRACK 11 AUDIO
TITLE "M'appari"
PERFORMER "Plбcido Domingo"
INDEX 00 33:07:06
INDEX 01 33:11:53
TRACK 12 AUDIO
TITLE "Andalucнa"
PERFORMER "Plбcido Domingo"
INDEX 00 36:59:17
INDEX 01 37:02:31
TRACK 13 AUDIO
TITLE "Il mio tesoro"
PERFORMER "Plбcido Domingo"
INDEX 00 39:50:61
INDEX 01 39:54:71
TRACK 14 AUDIO
TITLE "Firenze и come un albero fiorito"
PERFORMER "Plбcido Domingo"
INDEX 00 44:17:63
INDEX 01 44:20:71
TRACK 15 AUDIO
TITLE "Recitar! Mentre preso; Vesti la giubba"
PERFORMER "Plбcido Domingo"
INDEX 00 46:33:23
INDEX 01 46:36:62
TRACK 16 AUDIO
TITLE "O soave fanciulla"
PERFORMER "Plбcido Domingo"
INDEX 00 50:48:01
INDEX 01 50:52:19
TRACK 17 AUDIO
TITLE "A Love Until The End Of Time"
PERFORMER "Plбcido Domingo"
INDEX 00 54:47:34
INDEX 01 54:52:22
TRACK 18 AUDIO
TITLE "Libiamo ne' lieti calici (Brindisi)"
PERFORMER "Plбcido Domingo"
INDEX 00 57:53:58
INDEX 01 57:57:27
TRACK 19 AUDIO
TITLE "Bonus Track: Willkommen bei uns (Long Version)"
PERFORMER "Plбcido Domingo"
INDEX 00 61:07:73
INDEX 01 61:10:17

Сканы



Скриншот(ы) тегов iTunes


Делал для собственного пользования из раздачи FLAC, которая в источнике.
Частично добавил лирику и отретушированную обложку.

If you like the topic, please click share to help develop our site.

To download the file disable ad blocking, and reload the page.

disable adblock How to disable ad blocking?

Download by magnet link 339 MB Download Torrent

Login using:

Similar topics



   
Current time is: 20-Jul 10:36 :: All times are UTC + 3