Placido Domingo / Be My Love... (An Album Of Love)
Жанр: classic / vocal
Носитель: CD
Страна-производитель диска: UK
Год издания: 1990
Издатель (лейбл): EMI Records
Номер по каталогу: CDP 7 95468 2
Страна исполнителя (группы): Spain
Аудио кодек: ALAC (*.m4a)
Тип рипа: tracks
Программа-конвертер: X Lossless Decoder (XLD)
Битрейт аудио: lossless
Продолжительность: 00:54:14
Наличие сканов в содержимом раздачи: нет
Тексты: вшиты
Источник
Треклист:
01. Be My Love (3:12)
02. Jealousy Tango (2:48)
03. Love Story (4:24)
04. O Sole Mio (2:59)
05. Somewhere Over The Rainbow (4:00)
06. Valencia (2:49)
07. La Golondrina (3:09)
08. Love Be My Guiding Star (4:02)
09. Because You're Mine (2:54)
10. Mamma (3:40)
11. El Condor Pasa (3:03)
12. Quiereme Mucho (3:41)
13. Somewhere, My Love (4:10)
14. En Aranjuez Con Tu Amor (2:49)
15. La Vie En Rose (3:26)
16. Spanish Eyes (3:07)

Лог создания рипа

Exact Audio Copy V0.99 prebeta 5 from 4. May 2009
Отчёт EAC об извлечении, выполненном 8. сентября 2010, 9:19
Placido Domingo / Be My Love - An Album of Love
Дисковод: SONY DVD RW DRX-S70U Adapter: 1 ID: 0
Режим чтения : Достоверность
Использование точного потока : Да
Отключение кэша аудио : Да
Использование указателей C2 : Нет
Коррекция смещения при чтении : 48
Способность читать области Lead-in и Lead-out : Нет
Заполнение пропущенных сэмплов тишиной : Да
Удаление блоков с тишиной в начале и конце : Нет
При вычислениях CRC использовались нулевые сэмплы : Да
Интерфейс : Встроенный Win32-интерфейс для Win NT/2000
Выходной формат : Пользовательский кодировщик
Выбранный битрейт : 768 kBit/s
Качество : Высокий
Добавление ID3-тэга : Нет
Утилита сжатия : H:\Program Files\Exact Audio Copy\Flac\flac.exe
Дополнительные параметры : -6 -V -T "ARTIST=%a" -T "TITLE=%t" -T "ALBUM=%g" -T "DATE=%y" -T "TRACKNUMBER=%n" -T "GENRE=%m" -T "COMMENT=%e" %s -o %d
TOC извлечённого CD
Трек | Старт | Длительность | Начальный сектор | Конечный сектор
---------------------------------------------------------------------
1 | 0:00.33 | 3:11.65 | 33 | 14422
2 | 3:12.23 | 2:47.65 | 14423 | 27012
3 | 6:00.13 | 4:24.37 | 27013 | 46849
4 | 10:24.50 | 2:59.05 | 46850 | 60279
5 | 13:23.55 | 4:00.20 | 60280 | 78299
6 | 17:24.00 | 2:48.70 | 78300 | 90969
7 | 20:12.70 | 3:08.40 | 90970 | 105109
8 | 23:21.35 | 4:01.73 | 105110 | 123257
9 | 27:23.33 | 2:53.62 | 123258 | 136294
10 | 30:17.20 | 3:39.65 | 136295 | 152784
11 | 33:57.10 | 3:03.18 | 152785 | 166527
12 | 37:00.28 | 3:40.67 | 166528 | 183094
13 | 40:41.20 | 4:10.05 | 183095 | 201849
14 | 44:51.25 | 2:48.65 | 201850 | 214514
15 | 47:40.15 | 3:26.33 | 214515 | 229997
16 | 51:06.48 | 3:07.20 | 229998 | 244042
Характеристики диапазона извлечения и сообщения об ошибках
Выбранный диапазон
Имя файла F:\Placido Domingo\Be My Love - An Album of Love\Placido Domingo - Be My Love - An Album of Love.wav
Пиковый уровень 100.0 %
Качество диапазона 99.9 %
CRC теста F749EC30
CRC копии F749EC30
Копирование... OK
Ошибок не произошло
AccurateRip: сводка
Трек 1 точность не определена (достоверность 3) [663D16E5], AccurateRip вернул [065DFB19]
Трек 2 точность не определена (достоверность 3) [CD6AEE9C], AccurateRip вернул [72CC835C]
Трек 3 точность не определена (достоверность 3) [75E0776A], AccurateRip вернул [08CF724D]
Трек 4 точность не определена (достоверность 3) [02882A89], AccurateRip вернул [20C9200E]
Трек 5 точность не определена (достоверность 3) [07C6F632], AccurateRip вернул [DD183516]
Трек 6 точность не определена (достоверность 3) [DDB5F2DF], AccurateRip вернул [3990D31F]
Трек 7 точность не определена (достоверность 3) [1839CD2F], AccurateRip вернул [AAD6697F]
Трек 8 точность не определена (достоверность 3) [D0C06386], AccurateRip вернул [8AFB25E2]
Трек 9 точность не определена (достоверность 3) [8BB80DBB], AccurateRip вернул [07A17723]
Трек 10 точность не определена (достоверность 3) [5A57FF5D], AccurateRip вернул [44986585]
Трек 11 точность не определена (достоверность 3) [61152EDF], AccurateRip вернул [85CD2A4B]
Трек 12 точность не определена (достоверность 3) [ED65EADB], AccurateRip вернул [FED3655F]
Трек 13 точность не определена (достоверность 3) [30A0DC0D], AccurateRip вернул [2447AC09]
Трек 14 точность не определена (достоверность 3) [58DB77EF], AccurateRip вернул [0619FF0B]
Трек 15 точность не определена (достоверность 3) [E04DD439], AccurateRip вернул [62D17AA1]
Трек 16 точность не определена (достоверность 3) [0CE43046], AccurateRip вернул [D93704D2]
Ни один трек не прошёл проверки на точность
В вашей базе может быть иной вариант штамповки диска
Конец отчёта

Содержание индексной карты (.CUE)

REM GENRE Classical
REM DATE 1989
REM DISCID CE0CB510
REM COMMENT "ExactAudioCopy v0.99pb5"
PERFORMER "Placido Domingo"
TITLE "Be My Love - An Album of Love"
FILE "Placido Domingo - Be My Love - An Album of Love.flac" WAVE
  TRACK 01 AUDIO
    TITLE "Be My Love"
    PERFORMER "Placido Domingo"
    INDEX 00 00:00:00
    INDEX 01 00:00:33
  TRACK 02 AUDIO
    TITLE "Jealousy Tango"
    PERFORMER "Placido Domingo"
    INDEX 00 03:10:70
    INDEX 01 03:12:23
  TRACK 03 AUDIO
    TITLE "Love Story"
    PERFORMER "Placido Domingo"
    INDEX 00 05:58:58
    INDEX 01 06:00:13
  TRACK 04 AUDIO
    TITLE "O Sole Mio"
    PERFORMER "Placido Domingo"
    INDEX 00 10:24:48
    INDEX 01 10:24:50
  TRACK 05 AUDIO
    TITLE "Somewhere Over The Rainbow"
    PERFORMER "Placido Domingo"
    INDEX 00 13:21:73
    INDEX 01 13:23:55
  TRACK 06 AUDIO
    TITLE "Valencia"
    PERFORMER "Placido Domingo"
    INDEX 00 17:22:08
    INDEX 01 17:24:00
  TRACK 07 AUDIO
    TITLE "La Golondrina"
    PERFORMER "Placido Domingo"
    INDEX 00 20:11:18
    INDEX 01 20:12:70
  TRACK 08 AUDIO
    TITLE "Love Be My Guiding Star"
    PERFORMER "Placido Domingo"
    INDEX 00 23:19:68
    INDEX 01 23:21:35
  TRACK 09 AUDIO
    TITLE "Because You're Mine"
    PERFORMER "Placido Domingo"
    INDEX 00 27:21:40
    INDEX 01 27:23:33
  TRACK 10 AUDIO
    TITLE "Mamma"
    PERFORMER "Placido Domingo"
    INDEX 00 30:15:43
    INDEX 01 30:17:20
  TRACK 11 AUDIO
    TITLE "El Condor Pasa"
    PERFORMER "Placido Domingo"
    INDEX 00 33:55:68
    INDEX 01 33:57:10
  TRACK 12 AUDIO
    TITLE "Quiereme Mucho"
    PERFORMER "Placido Domingo"
    INDEX 00 36:58:55
    INDEX 01 37:00:28
  TRACK 13 AUDIO
    TITLE "Somewhere, My Love"
    PERFORMER "Placido Domingo"
    INDEX 00 40:39:40
    INDEX 01 40:41:20
  TRACK 14 AUDIO
    TITLE "En Aranjuez Con Tu Amor"
    PERFORMER "Placido Domingo"
    INDEX 00 44:49:40
    INDEX 01 44:51:25
  TRACK 15 AUDIO
    TITLE "La Vie En Rose"
    PERFORMER "Placido Domingo"
    INDEX 00 47:39:23
    INDEX 01 47:40:15
  TRACK 16 AUDIO
    TITLE "Spanish Eyes"
    PERFORMER "Placido Domingo"
    INDEX 00 51:04:35
    INDEX 01 51:06:48

Скриншот(ы) тегов iTunes


Делал для собственного пользования из раздачи FLAC, которая в источнике.
Добавил лирику и отретушированную обложку.

If you like the topic, please click share to help develop our site.

To download the file disable ad blocking, and reload the page.

disable adblock How to disable ad blocking?

Download by magnet link 287 MB Download Torrent

Login using:

Similar topics



   
Current time is: 17-Jul 06:12 :: All times are UTC + 3