Информация о фильме
Название: Малыш на драйве
Оригинальное название: Baby Driver
Год выхода: 2017
Жанр: Боевик, Триллер, Криминал, Музыка
Режиссер: Эдгар Райт
В ролях: Энсел Элгорт, Кевин Спейси, Лили Джеймс, Эйса Гонсалес, Джон Хэмм, Джейми Фокс, Джон Бернтал, Фли, Лэнни Джун, Мика Ховард
О фильме:
Молодой парень по прозвищу Малыш обожает стильную музыку, быструю езду и адреналин в крови. Вся его жизнь — это сплошные погони и перестрелки, ведь он работает водителем, который помогает бандитам скрыться с места преступления. Однажды он по-настоящему влюбляется и решает выйти из игры, но сначала ему предстоит выполнить еще одно задание, которое вполне может оказаться последним в его жизни.

Страна: Великобритания, США
Студия: Big Talk Productions, Double Negative
Продолжительность: 01:52:40
Перевод: Многоголосый закадровый ("Paradox" & Omskbird records) (ненорматив)
Файл
Кодек: MPEG-4 AVC
Качество: BDRip 720p | L
Видео: AVC, 1280x534, 23,976 fps, 7500 Kbps
Звук:
Аудио #1: AC3, 2 ch, 384 Kbps, CBR - Русский
Аудио #2: DTS, 6 ch, 1509 Kbps, CBR - Английский
Субтитры: Английские (Форс., SDH)
Семпл

Mediainfo

Общее
Уникальный идентификатор : 201137089082230440064235054065968090954 (0x97519822ABBC453BBF28F0C92B0A0F4A)
Полное имя : Baby Driver.2017.BDRip.720p.mkv
Формат : Matroska
Версия формата : Version 4 / Version 2
Размер файла : 7,28 Гбайт
Продолжительность : 1 ч. 52 м.
Общий поток : 9255 Кбит/сек
Название фильма : Baby Driver.2017.BDRip.720p
Дата кодирования : UTC 2017-09-26 14:45:19
Программа кодирования : mkvmerge v15.0.0 ('Duel with the Devil') 64-bit
Библиотека кодирования : libebml v1.3.5 + libmatroska v1.4.5
Видео
Идентификатор : 1
Формат : AVC
Формат/Информация : Advanced Video Codec
Профиль формата : [email protected]
Настройки формата : CABAC / 9 Ref Frames
Параметр CABAC формата : Да
Параметр RefFrames формата : 9 кадров
Идентификатор кодека : V_MPEG4/ISO/AVC
Продолжительность : 1 ч. 52 м.
Битрейт : 7500 Кбит/сек
Ширина : 1280 пикселей
Высота : 534 пикселя
Соотношение сторон : 2,40:1
Режим частоты кадров : Постоянный
Частота кадров : 23,976 (24000/1001) кадра/сек
Цветовое пространство : YUV
Субдискретизация насыщенности : 4:2:0
Битовая глубина : 8 бит
Тип развёртки : Прогрессивная
Бит/(Пиксели*Кадры) : 0.458
Размер потока : 5,79 Гбайт (80%)
Заголовок : CHD
Библиотека кодирования : x264 core 149 r2771+45 509cceb 7mod [[email protected] X86_64]
Настройки программы : cabac=1 / ref=9 / deblock=1:-1:-1 / analyse=0x3:0x133 / me=umh / subme=11 / psy=1 / fade_compensate=0.00 / psy_rd=0.90:0.10 / mixed_ref=1 / me_range=32 / chroma_me=1 / trellis=2 / 8x8dct=1 / cqm=0 / deadzone=21,11 / fast_pskip=0 / chroma_qp_offset=-4 / threads=12 / lookahead_threads=2 / sliced_threads=0 / nr=0 / decimate=1 / interlaced=0 / bluray_compat=0 / constrained_intra=0 / fgo=0 / bframes=9 / b_pyramid=2 / b_adapt=2 / b_bias=0 / direct=3 / weightb=1 / open_gop=0 / weightp=2 / keyint=250 / keyint_min=23 / scenecut=40 / intra_refresh=0 / rc_lookahead=30 / rc=2pass / mbtree=0 / bitrate=7500 / ratetol=2.0 / qcomp=0.70 / qpmin=0:0:0 / qpmax=69:69:69 / qpstep=4 / cplxblur=20.0 / qblur=0.5 / vbv_maxrate=24000 / vbv_bufsize=24000 / nal_hrd=none / filler=0 / ip_ratio=1.40 / pb_ratio=1.30 / aq=3:1.00 / aq-sensitivity=10.00 / aq-factor=1.00:1.00:1.00 / aq2=0 / aq3=2:[0.50:0.50]:[0.50:0.50]:[0.50:0.50]:[0.50:0.50] / aq3-sensitivity=10.00 / aq3-factor=[1.00:1.00]:[1.00:1.00]:[1.00:1.00] / aq3-boundary=192:64:24
Язык : English
Default : Да
Forced : Нет
Аудио #1
Идентификатор : 2
Формат : AC-3
Формат/Информация : Audio Coding 3
Параметр Endianness формата : Big
Идентификатор кодека : A_AC3
Продолжительность : 1 ч. 52 м.
Вид битрейта : Постоянный
Битрейт : 384 Кбит/сек
Каналы : 2 канала
Расположение каналов : Front: L R
Частота : 48,0 КГц
Частота кадров : 31,250 кадров/сек (1536 SPF)
Битовая глубина : 16 бит
Метод сжатия : С потерями
Размер потока : 309 Мбайт (4%)
Заголовок : MVO ("Paradox" & Omskbird records)
Язык : Russian
ServiceKind : Complete Main
Default : Да
Forced : Нет
Аудио #2
Идентификатор : 3
Формат : DTS
Формат/Информация : Digital Theater Systems
Режим : 16
Параметр Endianness формата : Big
Идентификатор кодека : A_DTS
Продолжительность : 1 ч. 52 м.
Вид битрейта : Постоянный
Битрейт : 1509 Кбит/сек
Каналы : 6 каналов
Расположение каналов : Front: L C R, Side: L R, LFE
Частота : 48,0 КГц
Частота кадров : 93,750 кадра/сек (512 SPF)
Битовая глубина : 24 бит
Метод сжатия : С потерями
Размер потока : 1,19 Гбайт (16%)
Язык : English
Default : Нет
Forced : Нет
Текст #1
Идентификатор : 4
Формат : UTF-8
Идентификатор кодека : S_TEXT/UTF8
Идентификатор кодека/Информация : UTF-8 Plain Text
Продолжительность : 1 ч. 16 м.
Битрейт : 1 бит/сек
ElementCount : 49
Размер потока : 738 байт (0%)
Заголовок : Forced
Язык : English
Default : Нет
Forced : Нет
Текст #2
Идентификатор : 5
Формат : UTF-8
Идентификатор кодека : S_TEXT/UTF8
Идентификатор кодека/Информация : UTF-8 Plain Text
Продолжительность : 1 ч. 51 м.
Битрейт : 77 бит/сек
ElementCount : 2156
Размер потока : 63,9 Кбайт (0%)
Заголовок : SDH
Язык : English
Default : Нет
Forced : Нет
Меню
00:00:00.000 : en:00:00:00.000
00:09:11.050 : en:00:09:11.050
00:13:30.476 : en:00:13:30.476
00:20:58.174 : en:00:20:58.174
00:25:17.599 : en:00:25:17.599
00:33:07.903 : en:00:33:07.903
00:43:43.246 : en:00:43:43.246
00:48:15.643 : en:00:48:15.643
00:53:39.550 : en:00:53:39.550
00:58:51.903 : en:00:58:51.903
01:05:23.545 : en:01:05:23.545
01:11:34.081 : en:01:11:34.081
01:19:17.002 : en:01:19:17.002
01:30:30.675 : en:01:30:30.675
01:38:04.170 : en:01:38:04.170
01:43:30.413 : en:01:43:30.413

Скриншоты


If you like the topic, please click share to help develop our site.

To download the file disable ad blocking, and reload the page.

disable adblock How to disable ad blocking?

Download by magnet link 7.28 GB Download Torrent

Login using:

Similar topics



   
Current time is: 17-Jul 05:28 :: All times are UTC + 3