Информация о фильме
Название: Культ Чаки
Оригинальное название: Cult of Chucky
Год выхода: 2017
Жанр: ужасы, триллер
Режиссер: Дон Манчини
В ролях: Дженнифер Тилли, Фиона Дуриф, Брэд Дуриф, Алекс Винсент, Майкл Терриоль, Элизабет Розен, Зак Сантьяго, Грэйс Линн Кунг, Али Татарин, Саммер Х. Хауэлл
О фильме:
Ника Пирс 4 года провела в лечебнице. Ее убеждают в том, что она виновна в гибели семьи, а не кукла Чаки. Когда лечащий врач предлагает новый вариант терапии с куклой с добрым лицом, в лечебнице начинают погибать люди, и Ника начинает думать, что ее кошмары реальны. Энди Барклай повзрослел и спешит на помощь, но ему хочет помешать Тиффани — невеста Чаки, готовая на все, чтобы помочь возлюбленному.

Страна: США
Студия: Alterian Inc.
Продолжительность: 01:30:56
Перевод: любительский одноголосный, закадровый [Хихикающий доктор]
Файл
Кодек: H.264
Качество: BDRip 720p
Видео: AVC, 1280x720 (16:9), 23.976 fps ~ 5370 Kbps
Звук:
AC3, 48 KHz, 2 ch ~ 192 Kb/s (русский)
AC3, 48 KHz, 6 ch ~ 448 Kb/s (английский)
Субтитры: английские

MI:

Общее
Уникальный идентификатор : 202277876428218197983424675909564598165 (0x982D4D4B491B2AB08DA70FCD6A5F8795)
Полное имя : Q:TorFCult.of.Chucky.2017.UNRATED.720p.BDRip.mkv
Формат : Matroska
Версия формата : Version 2
Размер файла : 3,82 Гбайт
Продолжительность : 1 ч. 30 м.
Общий поток : 6013 Кбит/сек
Дата кодирования : UTC 2017-09-26 17:11:54
Программа кодирования : mkvmerge v5.4.0 ('Piper') built on Mar 10 2012 13:34:39
Библиотека кодирования : libebml v1.2.3 + libmatroska v1.3.0
Видео
Идентификатор : 1
Формат : AVC
Формат/Информация : Advanced Video Codec
Профиль формата : [email protected]
Параметр CABAC формата : Да
Параметр ReFrames формата : 5 кадров
Идентификатор кодека : V_MPEG4/ISO/AVC
Продолжительность : 1 ч. 30 м.
Битрейт : 5371 Кбит/сек
Ширина : 1280 пикселей
Высота : 720 пикселей
Соотношение сторон : 16:9
Частота кадров : 23,976 кадра/сек
Цветовое пространство : YUV
Субдискретизация насыщенности : 4:2:0
Битовая глубина : 8 бит
Тип развёртки : Прогрессивная
Бит/(Пиксели*Кадры) : 0.243
Размер потока : 3,34 Гбайт (87%)
Библиотека кодирования : x264 core 152 r2851 ba24899
Настройки программы : cabac=1 / ref=5 / deblock=1:0:0 / analyse=0x3:0x133 / me=umh / subme=7 / psy=1 / psy_rd=1.00:0.00 / mixed_ref=1 / me_range=16 / chroma_me=1 / trellis=1 / 8x8dct=1 / cqm=0 / deadzone=21,11 / fast_pskip=0 / chroma_qp_offset=-2 / threads=22 / lookahead_threads=3 / sliced_threads=0 / nr=0 / decimate=1 / interlaced=0 / bluray_compat=0 / constrained_intra=0 / bframes=3 / b_pyramid=2 / b_adapt=1 / b_bias=0 / direct=1 / weightb=1 / open_gop=0 / weightp=2 / keyint=250 / keyint_min=23 / scenecut=40 / intra_refresh=0 / rc_lookahead=40 / rc=2pass / mbtree=1 / bitrate=5371 / ratetol=1.0 / qcomp=0.60 / qpmin=0 / qpmax=69 / qpstep=4 / cplxblur=20.0 / qblur=0.5 / ip_ratio=1.40 / aq=1:1.00
Язык : English
Default : Да
Forced : Нет
DURATION : 01:30:56.251000000
NUMBER_OF_FRAMES : 130819
NUMBER_OF_BYTES : 3662790955
_STATISTICS_WRITING_APP : mkvmerge v15.0.0 ('Duel with the Devil') 64-bit
_STATISTICS_WRITING_DATE_UTC : 2017-09-26 05:41:59
_STATISTICS_TAGS : BPS DURATION NUMBER_OF_FRAMES NUMBER_OF_BYTES
Аудио #1
Идентификатор : 2
Формат : AC-3
Формат/Информация : Audio Coding 3
Расширение режима : CM (complete main)
Идентификатор кодека : A_AC3
Продолжительность : 1 ч. 30 м.
Вид битрейта : Постоянный
Битрейт : 192 Кбит/сек
Каналы : 2 канала
Расположение каналов : Front: L R
Частота : 48,0 КГц
Битовая глубина : 16 бит
Метод сжатия : С потерями
Размер потока : 125 Мбайт (3%)
Заголовок : xixidok
Язык : Russian
Default : Да
Forced : Нет
Аудио #2
Идентификатор : 3
Формат : AC-3
Формат/Информация : Audio Coding 3
Расширение режима : CM (complete main)
Идентификатор кодека : A_AC3
Продолжительность : 1 ч. 30 м.
Вид битрейта : Постоянный
Битрейт : 448 Кбит/сек
Каналы : 6 каналов
Расположение каналов : Front: L C R, Side: L R, LFE
Частота : 48,0 КГц
Битовая глубина : 16 бит
Метод сжатия : С потерями
Размер потока : 291 Мбайт (7%)
Язык : English
Default : Нет
Forced : Нет
Текст
Идентификатор : 4
Формат : UTF-8
Идентификатор кодека : S_TEXT/UTF8
Идентификатор кодека/Информация : UTF-8 Plain Text
Язык : English
Default : Да
Forced : Нет
Меню
00:00:00.000 : en:00:00:00.000
00:02:36.573 : en:00:02:36.573
00:07:26.571 : en:00:07:26.571
00:11:59.260 : en:00:11:59.260
00:15:36.853 : en:00:15:36.853
00:19:20.451 : en:00:19:20.451
00:25:09.007 : en:00:25:09.007
00:29:37.818 : en:00:29:37.818
00:33:01.730 : en:00:33:01.730
00:38:30.892 : en:00:38:30.892
00:46:01.133 : en:00:46:01.133
00:51:16.949 : en:00:51:16.949
00:56:06.029 : en:00:56:06.029
01:01:22.470 : en:01:01:22.470
01:08:10.878 : en:01:08:10.878
01:12:07.782 : en:01:12:07.782
01:17:08.666 : en:01:17:08.666
01:21:58.163 : en:01:21:58.163
01:24:33.485 : en:01:24:33.485
01:26:59.714 : en:01:26:59.714
Семпл

Скриншоты

Голосовая реклама в начальных и конечных титрах

If you like the topic, please click share to help develop our site.

To download the file disable ad blocking, and reload the page.

disable adblock How to disable ad blocking?

Download by magnet link 3.82 GB Download Torrent

Login using:

Similar topics



   
Current time is: 19-Jul 23:47 :: All times are UTC + 3