Информация о фильме
Наименование: Дитя Осириса: научная фантастика, выпуск 1
Оригинальное наименование: Science Fiction Volume One: The Osiris Child
Произведено: Австралия
Категория: фантастика
Режиссер постановщик: Шейн Эббесс
В главных ролях: Келлан Латс, Дэниэл МакФерсон, Изабель Лукас, Люк Форд, Рэйчел Гриффитс, Темуэра Моррисон, Брен Фостер, Дуэйн Стивенсон, Грэйс Хуан
О фильме:
Колонизация космоса людьми идёт полным ходом. На далёкой планете лейтенант Кейн несёт службу, и его дочь никогда не видела Земли. Там же проводятся некие эксперименты, и когда расплодившихся чудовищ становится слишком много, генерал решает уничтожить на планете всё живое, сославшись на несуществующий бунт в местной тюрьме. У гражданина Кейна есть 24 часа, чтобы спасти дочь и постараться выжить самому.

Файл
Качество: WEB-DL 720p
Видео данные: MKV, 1280x480 (2.667), 23.976 fps, 4000 Кбит/с
Аудио данные: Русский (MP3, 2 ch, 320 Кбит/с)
Перевод: Любительский многоголосый (GreenРай Studio)
Продолжительность: 01:39:58
ВНИМАНИЕ! Присутствует реклама!

Скрытый текст

Общее
Уникальный идентификатор : 215278656404049501019965427279073171835 (0xA1F5293C402670B9A2813BBAD62CD97B)
Полное имя : E:ЗагрузкиScience.Fiction.Volume.One.The.Osiris.Child.2016.P.BDRip.720p.mkv
Формат : Matroska
Версия формата : Version 4 / Version 2
Размер файла : 2,89 Гбайт
Продолжительность : 1 ч. 39 м.
Режим общего битрейта : Постоянный
Общий поток : 4156 Кбит/сек
Дата кодирования : UTC 2017-09-26 05:22:14
Программа кодирования : mkvmerge v8.3.0 ('Over the Horizon') 64bit
Библиотека кодирования : libebml v1.3.1 + libmatroska v1.4.2
Видео
Идентификатор : 1
Формат : AVC
Формат/Информация : Advanced Video Codec
Профиль формата : [email protected]
Параметр CABAC формата : Да
Параметр ReFrames формата : 3 кадра
Параметр GOP формата : M=4, N=15
Идентификатор кодека : V_MPEG4/ISO/AVC
Продолжительность : 1 ч. 39 м.
Вид битрейта : Постоянный
Битрейт : 3753 Кбит/сек
Номинальный битрейт : 4000 Кбит/сек
Ширина : 1280 пикселей
Высота : 480 пикселей
Соотношение сторон : 2,667
Режим частоты кадров : Постоянный
Частота кадров : 23,976 (24000/1001) кадра/сек
Стандарт вещания : NTSC
Цветовое пространство : YUV
Субдискретизация насыщенности : 4:2:0
Битовая глубина : 8 бит
Тип развёртки : Прогрессивная
Бит/(Пиксели*Кадры) : 0.255
Размер потока : 2,61 Гбайт (90%)
Язык : English
Default : Да
Forced : Нет
Цветовой диапазон : Limited
Аудио
Идентификатор : 2
Формат : MPEG Audio
Версия формата : Version 1
Профиль формата : Layer 3
Режим : Joint stereo
Идентификатор кодека : A_MPEG/L3
Идентификатор кодека/Подсказка : MP3
Продолжительность : 1 ч. 39 м.
Вид битрейта : Постоянный
Битрейт : 320 Кбит/сек
Каналы : 2 канала
Частота : 48,0 КГц
Метод сжатия : С потерями
Размер потока : 228 Мбайт (8%)
Default : Да
Forced : Нет

Скриншоты

Релиз от:

If you like the topic, please click share to help develop our site.

To download the file disable ad blocking, and reload the page.

disable adblock How to disable ad blocking?

Download by magnet link 2.89 GB Download Torrent

Login using:

Similar topics

Экстро / Xtro (1982) BDRemux 1080р | A
 15.93 GB   2 | 0   27-Sep-17 22:30   14
Портал / The Gateway (2018) WEB-DL 1080p от | HDRezka Studio
 4.38 GB   9 | 0   04-Sep-18 14:30   9
Черная дыра / Pitch Black (2000) BDRip
 1.79 GB   4 | 1   17-Jun-16 21:11   7
Время / In Time (2011) WEB-DL 1080p | D, A | Open Matte
 9.12 GB   15 | 0   06-Jul-18 12:30   6


   
Current time is: 17-Jul 05:46 :: All times are UTC + 3