Информация о фильме
Название: Девятые врата
Оригинальное название: The Ninth Gate
Год выхода: 1999
Жанр: триллер, детектив
Режиссер: Роман Полански
В ролях: Джонни Депп, Фрэнк Ланджелла, Лена Улин, Эмманюэль Сенье, Барбара Джеффорд, Джек Тейлор, Хосе Лопес Родеро, Тони Амони, Джеймс Руссо, Уилли Холт
О фильме: Дин Корсо, один из лучших специалистов по поиску, оценке и скупке раритетных изданий, принимает от владельца крупнейшей в мире библиотеки оккультных книг необычный, но крайне выгодный заказ: определить подлинность венца собрания, фолианта XVII века под названием «Девять врат в царство призраков», с помощью которого, по преданию, можно вызвать самого Люцифера. Ему предстоит полное опасностей и тайн путешествие по Европе.
Но только тогда, когда на пути к разгадке тайны «Девятых врат» начинают попадаться трупы тех, с кем Дин Корсо встречался совсем недавно, ему открывается зловещая правда. Он понимает, что в этой дьявольской игре на кон поставлена не только жизнь его, но и душа…

Страна: Испания, Франция, США
Студия: Artisan Entertainment, Origen Producciones Cinematograficas S.A., Canal+ España
Продолжительность: 02:13:15
Перевод: Профессиональный (дублированный) R5 + Профессиональный (многоголосый, закадровый) ? + Профессиональный (многоголосый, закадровый) НТВ + Профессиональный (многоголосый, закадровый) ТВ3 + Профессиональный (двухголосый, закадровый) НТВ+ + Профессиональный (двухголосый, закадровый) ТВ6 + Авторский (одноголосый, закадровый) А.Гаврилов + Авторский (одноголосый, закадровый) Ю.Живов + Авторский (одноголосый, закадровый) Ю.Сербин + Авторский (одноголосый, закадровый) В.Сонькин
Файл
Качество: BDRip 720p
Формат: Matroska
Видео: 1280x544 at 23.976 fps, [email protected], ~4670 kbps avg
Aудио#1: Russian: 48 kHz, AC3, 3/2 (L,C,R,l,r) + LFE ch, ~384 kbps avg |Дубляж, R5|
Aудио#2: Russian: 48 kHz, AC3, 3/2 (L,C,R,l,r) + LFE ch, ~448 kbps avg |Многоголосый закадровый, ?|
Aудио#3: Russian: 48 kHz, AC3, 2/0 (L,R) ch, ~192 kbps avg |Многоголосый закадровый, НТВ|
Aудио#4: Russian: 48 kHz, AC3, 2/0 (L,R) ch, ~192 kbps avg |Многоголосый закадровый, ТВ3|
Aудио#5: Russian: 48 kHz, AC3, 3/2 (L,C,R,l,r) + LFE ch, ~448 kbps avg |Двухголосый закадровый, НТВ+|
Aудио#6: Russian: 48 kHz, AC3, 2/0 (L,R) ch, ~192 kbps avg |Двухголосый закадровый, ТВ6|
Aудио#7: Russian: 48 kHz, AC3, 3/2 (L,C,R,l,r) + LFE ch, ~448 kbps avg |Авторский, А.Гаврилов|
Aудио#8: Russian: 48 kHz, AC3, 3/2 (L,C,R,l,r) + LFE ch, ~448 kbps avg |Авторский, Ю.Живов|
Aудио#9: Russian: 48 kHz, AC3, 3/2 (L,C,R,l,r) + LFE ch, ~448 kbps avg |Авторский, Ю.Сербин|
Aудио#10: Russian: 48 kHz, AC3, 3/2 (L,C,R,l,r) + LFE ch, ~448 kbps avg |Авторский, В.Сонькин|
Aудио#11: English: 48 kHz, AC3, 3/2 (L,C,R,l,r) + LFE ch, ~448 kbps avg
Субтитры: Russian, English
***Сохранены оригинальные главы как на Blu-ray.
***Релиз - msltel.

Знаете ли вы, что...

Фильм снят по мотивам романа Артуро Перес-Реверте «Клуб Дюма, или Тень Ришельё» (El club Dumas o la sombra de Richelieu, 1993).
Имя главного героя было изменено. В романе Реверте его зовут Лукас Корсо. В картине Поланского он стал Дином Корсо.
В романе Лиана Теллфер — эффектная блондинка с пышными формами. Актриса Лена Олин — худощавая брюнетка, явно не соответствует книжному оригиналу.
В романе наниматель Корсо — Варо Борха, а не Борис Балкан, ставший им в фильме.
Для Романа Поланского «Девятые врата» стали первой картиной в жанре мистического триллера со времён его шедеврального «Ребёнка Розмари».
Книга Реверте не является мистикой, а фильм же снят в жанре мистического триллера.
На съемках фильма Джонни познакомился с Ванессой Паради, будущей гражданской женой и матерью его двоих детей.
В фильме часто фигурирует число дьявола 666. В частности в 1666 г была написана книга «Девять врат в царство теней», 666 — код в лифте Пентхауза Болкана и в его частной библиотеке.
Ручка, которой пишет Корсо, — это ограниченный коллекционный выпуск шариковой ручки «Монблан Агата Кристи».
Сигареты, которые курит Лиана Тельфер, называются «Черные дьяволы».
Дин Корсо курит сигареты фирмы «Lucky Strike».
Книготорговцев Пабло и Педро Сениц, с которыми Корсо встречается в Толедо, сыграл один актер – Хосе Лопес Родеро. Маленькую девочку, которая сталкивается с Корсо в аэропорту в Париже, сыграла Морган, дочь Романа Поланского.
В книге Переса-Реверте есть две сюжетные линии, которые оказываются не взаимосвязаны между собой. Полански в сценарии органично соединил обе линии в одну. На начальных титрах камера сначала пролетит сквозь девять врат, прежде чем фильм начнется.
В начале фильма мы видим ряд различных открывающихся ворот — их ровно 9.

MediaInfo

Общее
Уникальный идентификатор : 204626825510041358493696058082033727137 (0x99F1B16CDEA1854588D622532AFCF6A1)
Полное имя : Девятые врата.1999.BDRip.720p by msltel.mkv
Формат : Matroska
Версия формата : Version 4 / Version 2
Размер файла : 8,32 Гбайт
Продолжительность : 2 ч. 13 м.
Общий поток : 8944 Кбит/сек
Название фильма : Rip by msltel
Дата кодирования : UTC 2017-09-27 04:41:56
Программа кодирования : mkvmerge v8.2.0 ('World of Adventure') 64bit
Библиотека кодирования : libebml v1.3.1 + libmatroska v1.4.2
Видео
Идентификатор : 1
Формат : AVC
Формат/Информация : Advanced Video Codec
Профиль формата : [email protected]
Параметр CABAC формата : Да
Параметр ReFrames формата : 9 кадров
Идентификатор кодека : V_MPEG4/ISO/AVC
Продолжительность : 2 ч. 13 м.
Битрейт : 4670 Кбит/сек
Ширина : 1280 пикселей
Высота : 544 пикселя
Соотношение сторон : 2,35:1
Режим частоты кадров : Постоянный
Частота кадров : 23,976 кадра/сек
Цветовое пространство : YUV
Субдискретизация насыщенности : 4:2:0
Битовая глубина : 8 бит
Тип развёртки : Прогрессивная
Бит/(Пиксели*Кадры) : 0.280
Размер потока : 4,35 Гбайт (52%)
Библиотека кодирования : x264 core 146 r2538 121396c
Настройки программы : cabac=1 / ref=9 / deblock=1:-3:-2 / analyse=0x3:0x113 / me=umh / subme=11 / psy=1 / psy_rd=1.00:0.15 / mixed_ref=1 / me_range=32 / chroma_me=1 / trellis=2 / 8x8dct=1 / cqm=0 / deadzone=21,11 / fast_pskip=0 / chroma_qp_offset=-3 / threads=6 / lookahead_threads=1 / sliced_threads=0 / nr=0 / decimate=1 / interlaced=0 / bluray_compat=0 / constrained_intra=0 / bframes=7 / b_pyramid=2 / b_adapt=2 / b_bias=0 / direct=1 / weightb=1 / open_gop=0 / weightp=2 / keyint=230 / keyint_min=23 / scenecut=40 / intra_refresh=0 / rc_lookahead=40 / rc=crf / mbtree=0 / crf=18.0 / qcomp=0.60 / qpmin=0 / qpmax=69 / qpstep=4 / vbv_maxrate=62500 / vbv_bufsize=78125 / crf_max=0.0 / nal_hrd=none / filler=0 / ip_ratio=1.40 / pb_ratio=1.30 / aq=1:1.00
Язык : English
Default : Да
Forced : Нет
Аудио #1
Идентификатор : 2
Формат : AC-3
Формат/Информация : Audio Coding 3
Расширение режима : CM (complete main)
Параметр Endianness формата : Big
Идентификатор кодека : A_AC3
Продолжительность : 2 ч. 13 м.
Вид битрейта : Постоянный
Битрейт : 384 Кбит/сек
Каналы : 6 каналов
Расположение каналов : Front: L C R, Side: L R, LFE
Частота : 48,0 КГц
Битовая глубина : 16 бит
Метод сжатия : С потерями
Размер потока : 366 Мбайт (4%)
Заголовок : DUB
Язык : Russian
Default : Да
Forced : Нет
Аудио #2
Идентификатор : 3
Формат : AC-3
Формат/Информация : Audio Coding 3
Расширение режима : CM (complete main)
Параметр Endianness формата : Big
Идентификатор кодека : A_AC3
Продолжительность : 2 ч. 13 м.
Вид битрейта : Постоянный
Битрейт : 448 Кбит/сек
Каналы : 6 каналов
Расположение каналов : Front: L C R, Side: L R, LFE
Частота : 48,0 КГц
Битовая глубина : 16 бит
Метод сжатия : С потерями
Размер потока : 427 Мбайт (5%)
Заголовок : MVO
Язык : Russian
Default : Нет
Forced : Нет
Аудио #3
Идентификатор : 4
Формат : AC-3
Формат/Информация : Audio Coding 3
Расширение режима : CM (complete main)
Параметр Endianness формата : Big
Идентификатор кодека : A_AC3
Продолжительность : 2 ч. 13 м.
Вид битрейта : Постоянный
Битрейт : 192 Кбит/сек
Каналы : 2 канала
Расположение каналов : Front: L R
Частота : 48,0 КГц
Битовая глубина : 16 бит
Метод сжатия : С потерями
Размер потока : 183 Мбайт (2%)
Заголовок : MVO.HTB
Язык : Russian
Default : Нет
Forced : Нет
Аудио #4
Идентификатор : 5
Формат : AC-3
Формат/Информация : Audio Coding 3
Расширение режима : CM (complete main)
Параметр Endianness формата : Big
Идентификатор кодека : A_AC3
Продолжительность : 2 ч. 13 м.
Вид битрейта : Постоянный
Битрейт : 192 Кбит/сек
Каналы : 2 канала
Расположение каналов : Front: L R
Частота : 48,0 КГц
Битовая глубина : 16 бит
Метод сжатия : С потерями
Размер потока : 183 Мбайт (2%)
Заголовок : MVO.TB3
Язык : Russian
Default : Нет
Forced : Нет
Аудио #5
Идентификатор : 6
Формат : AC-3
Формат/Информация : Audio Coding 3
Расширение режима : CM (complete main)
Параметр Endianness формата : Big
Идентификатор кодека : A_AC3
Продолжительность : 2 ч. 13 м.
Вид битрейта : Постоянный
Битрейт : 448 Кбит/сек
Каналы : 6 каналов
Расположение каналов : Front: L C R, Side: L R, LFE
Частота : 48,0 КГц
Битовая глубина : 16 бит
Метод сжатия : С потерями
Размер потока : 427 Мбайт (5%)
Заголовок : DVO.HTB+
Язык : Russian
Default : Нет
Forced : Нет
Аудио #6
Идентификатор : 7
Формат : AC-3
Формат/Информация : Audio Coding 3
Расширение режима : CM (complete main)
Параметр Endianness формата : Big
Идентификатор кодека : A_AC3
Продолжительность : 2 ч. 13 м.
Вид битрейта : Постоянный
Битрейт : 192 Кбит/сек
Каналы : 2 канала
Расположение каналов : Front: L R
Частота : 48,0 КГц
Битовая глубина : 16 бит
Метод сжатия : С потерями
Размер потока : 183 Мбайт (2%)
Заголовок : DVO.TB6
Язык : Russian
Default : Нет
Forced : Нет
Аудио #7
Идентификатор : 8
Формат : AC-3
Формат/Информация : Audio Coding 3
Расширение режима : CM (complete main)
Параметр Endianness формата : Big
Идентификатор кодека : A_AC3
Продолжительность : 2 ч. 13 м.
Вид битрейта : Постоянный
Битрейт : 448 Кбит/сек
Каналы : 6 каналов
Расположение каналов : Front: L C R, Side: L R, LFE
Частота : 48,0 КГц
Битовая глубина : 16 бит
Метод сжатия : С потерями
Размер потока : 427 Мбайт (5%)
Заголовок : Андрей Гаврилов
Язык : Russian
Default : Нет
Forced : Нет
Аудио #8
Идентификатор : 9
Формат : AC-3
Формат/Информация : Audio Coding 3
Расширение режима : CM (complete main)
Параметр Endianness формата : Big
Идентификатор кодека : A_AC3
Продолжительность : 2 ч. 13 м.
Вид битрейта : Постоянный
Битрейт : 448 Кбит/сек
Каналы : 6 каналов
Расположение каналов : Front: L C R, Side: L R, LFE
Частота : 48,0 КГц
Битовая глубина : 16 бит
Метод сжатия : С потерями
Размер потока : 427 Мбайт (5%)
Заголовок : Юрий Живов
Язык : Russian
Default : Нет
Forced : Нет
Аудио #9
Идентификатор : 10
Формат : AC-3
Формат/Информация : Audio Coding 3
Расширение режима : CM (complete main)
Параметр Endianness формата : Big
Идентификатор кодека : A_AC3
Продолжительность : 2 ч. 13 м.
Вид битрейта : Постоянный
Битрейт : 448 Кбит/сек
Каналы : 6 каналов
Расположение каналов : Front: L C R, Side: L R, LFE
Частота : 48,0 КГц
Битовая глубина : 16 бит
Метод сжатия : С потерями
Размер потока : 427 Мбайт (5%)
Заголовок : Юрий Сербин
Язык : Russian
Default : Нет
Forced : Нет
Аудио #10
Идентификатор : 11
Формат : AC-3
Формат/Информация : Audio Coding 3
Расширение режима : CM (complete main)
Параметр Endianness формата : Big
Идентификатор кодека : A_AC3
Продолжительность : 2 ч. 13 м.
Вид битрейта : Постоянный
Битрейт : 448 Кбит/сек
Каналы : 6 каналов
Расположение каналов : Front: L C R, Side: L R, LFE
Частота : 48,0 КГц
Битовая глубина : 16 бит
Метод сжатия : С потерями
Размер потока : 427 Мбайт (5%)
Заголовок : Владимир Сонькин
Язык : Russian
Default : Нет
Forced : Нет
Аудио #11
Идентификатор : 12
Формат : AC-3
Формат/Информация : Audio Coding 3
Расширение режима : CM (complete main)
Параметр Endianness формата : Big
Идентификатор кодека : A_AC3
Продолжительность : 2 ч. 13 м.
Вид битрейта : Постоянный
Битрейт : 448 Кбит/сек
Каналы : 6 каналов
Расположение каналов : Front: L C R, Side: L R, LFE
Частота : 48,0 КГц
Битовая глубина : 16 бит
Метод сжатия : С потерями
Размер потока : 427 Мбайт (5%)
Заголовок : original
Язык : English
Default : Нет
Forced : Нет
Текст #1
Идентификатор : 13
Формат : UTF-8
Идентификатор кодека : S_TEXT/UTF8
Идентификатор кодека/Информация : UTF-8 Plain Text
Заголовок : русские
Язык : Russian
Default : Нет
Forced : Нет
Текст #2
Идентификатор : 14
Формат : UTF-8
Идентификатор кодека : S_TEXT/UTF8
Идентификатор кодека/Информация : UTF-8 Plain Text
Заголовок : английские
Язык : English
Default : Нет
Forced : Нет
Меню
00:00:00.000 : en:Chapter 01
00:09:45.001 : en:Chapter 02
00:18:08.671 : en:Chapter 03
00:22:41.734 : en:Chapter 04
00:32:16.226 : en:Chapter 05
00:37:34.169 : en:Chapter 06
00:44:55.860 : en:Chapter 07
00:53:45.556 : en:Chapter 08
01:02:16.232 : en:Chapter 09
01:10:30.017 : en:Chapter 10
01:21:04.276 : en:Chapter 11
01:28:07.240 : en:Chapter 12
01:34:33.334 : en:Chapter 13
01:42:53.667 : en:Chapter 14
01:51:42.696 : en:Chapter 15
02:05:30.815 : en:Chapter 16

Скриншоты


If you like the topic, please click share to help develop our site.

To download the file disable ad blocking, and reload the page.

disable adblock How to disable ad blocking?

Download by magnet link 8.32 GB Download Torrent

Login using:

Similar topics

Остров проклятых / Shutter Island (2010) BDRip 1080p
 7.76 GB   13 | 0   15-Apr-17 16:00   6
В глубине леса / In fondo al bosco (2015) HDTVRip 1080p
 6.17 GB   3 | 0   02-Jun-16 18:59   5
Мимик / Мимикрия / Mimic / Jang-san-beom (2017) HDRip 720p | L1
 2.23 GB   1 | 1   12-Jan-18 10:30   4


   
Current time is: 17-Jul 05:27 :: All times are UTC + 3