Мумия / The Mummy«Отныне миром правят боги и монстры»- Страна: США
Жанр: фэнтези, боевик, триллер, приключения
Год выпуска: 2017
Продолжительность: 01:50:06
Перевод: Профессиональный (дублированный) (BD EUR)
Оригинальная аудиодорожка: английский
Субтитры: русские (форс., полные) английские (форс., полные, SDH)
Навигация по главам: есть
Режиссер: Алекс Куртцман / Alex Kurtzman
В ролях: Том Круз (Nick Morton), Рассел Кроу (Dr. Henry Jekyll), Аннабелль Уоллис (Jenny Halsey), София Бутелла (Ahmanet), Джейк Джонсон (Chris Vail), Кортни Б. Вэнс (Colonel Greenway), Марван Кензари (Malik), Саймон Атертон (Crusader), Стивен Томпсон (First Man), Джеймс Арама (Second Man), Мэтт Уилкас (Reporter), Зом Капила (Reporter)
Описание: Посреди безжалостной пустыни в величественном саркофаге погребена дочь египетского фараона, но настанет день, и она явится в наш мир вернуть себе то, что принадлежит ей по праву. Отныне миром правят боги и монстры.- -Качество: BDRip-AVC (исходник - The Mummy Blu-ray Disc [EUR] -Highvoltage)
Формат видео: MKV
Видео: x264, 1152x480 (2.40:1) 23,976 fps, ~2886 kbps, 0,218 bit/pixel
Аудио 1: 48 kHz, AC3 Dolby Digital, 3/2 (L,C,R,l,r) + LFE ch, ~448 kbps [русский]
Аудио 2: 48 kHz, AC3 Dolby Digital, 3/2 (L,C,R,l,r) + LFE ch, ~448 kbps [английский]
Формат субтитров: softsub (SRT)-

MediaInfo | x264 log

Format : Matroska
Format version : Version 4 / Version 2
File size : 2.97 GiB
Duration : 1 h 50 min
Overall bit rate : 3 859 kb/s
Movie name : Мумия / The Mummy (2017) :: AFM ::
Encoded date : UTC 2017-09-25 15:47:39
Writing application : mkvmerge v8.3.0 ('Over the Horizon') 32bit
Writing library : libebml v1.3.1 + libmatroska v1.4.2
Video
ID : 1
Format : AVC
Format/Info : Advanced Video Codec
Format profile : [email protected]
Format settings, CABAC : Yes
Format settings, ReFrames : 11 frames
Codec ID : V_MPEG4/ISO/AVC
Duration : 1 h 50 min
Bit rate : 2 887 kb/s
Width : 1 152 pixels
Height : 480 pixels
Display aspect ratio : 2.40:1
Frame rate mode : Constant
Frame rate : 23.976 (24000/1001) FPS
Color space : YUV
Chroma subsampling : 4:2:0
Bit depth : 8 bits
Scan type : Progressive
Bits/(Pixel*Frame) : 0.218
Stream size : 2.22 GiB (75%)
Title : BDRip by AFM
Writing library : x264 core 152 r2851+45 9658d1a 7mod [[email protected] X86_64]
Encoding settings : cabac=1 / ref=11 / deblock=1:-3:-2 / analyse=0x3:0x133 / me=umh / subme=10 / psy=1 / fade_compensate=0.00 / psy_rd=1.00:0.00 / mixed_ref=1 / me_range=32 / chroma_me=0 / trellis=2 / 8x8dct=1 / cqm=0 / deadzone=21,11 / fast_pskip=0 / chroma_qp_offset=-2 / threads=6 / lookahead_threads=1 / sliced_threads=0 / nr=0 / decimate=1 / interlaced=0 / bluray_compat=0 / constrained_intra=0 / fgo=0 / bframes=14 / b_pyramid=2 / b_adapt=2 / b_bias=0 / direct=1 / weightb=1 / open_gop=0 / weightp=2 / keyint=240 / keyint_min=23 / scenecut=40 / intra_refresh=0 / rc_lookahead=90 / rc=crf / mbtree=0 / crf=19.2000 / qcomp=0.65 / qpmin=0:0:0 / qpmax=69:69:69 / qpstep=4 / vbv_maxrate=50000 / vbv_bufsize=62500 / crf_max=0.0 / nal_hrd=none / filler=0 / ip_ratio=1.35 / pb_ratio=1.20 / aq=3:0.80 / aq-sensitivity=10.00 / aq-factor=1.00:1.00:1.00 / aq2=0 / aq3=0 / zones=146200,158378,q=30
Language : English
Default : Yes
Forced : No
Audio #1
ID : 2
Format : AC-3
Format/Info : Audio Coding 3
Mode extension : CM (complete main)
Format settings, Endianness : Big
Codec ID : A_AC3
Duration : 1 h 50 min
Bit rate mode : Constant
Bit rate : 448 kb/s
Channel(s) : 6 channels
Channel positions : Front: L C R, Side: L R, LFE
Sampling rate : 48.0 kHz
Frame rate : 31.250 FPS (1536 spf)
Compression mode : Lossy
Stream size : 353 MiB (12%)
Title : Dub, AC3 5.1 ~448 kbps
Language : Russian
Default : Yes
Forced : No
Audio #2
ID : 3
Format : AC-3
Format/Info : Audio Coding 3
Mode extension : CM (complete main)
Format settings, Endianness : Big
Codec ID : A_AC3
Duration : 1 h 50 min
Bit rate mode : Constant
Bit rate : 448 kb/s
Channel(s) : 6 channels
Channel positions : Front: L C R, Side: L R, LFE
Sampling rate : 48.0 kHz
Frame rate : 31.250 FPS (1536 spf)
Compression mode : Lossy
Stream size : 353 MiB (12%)
Title : Original, AC3 5.1 ~448 kbps
Language : English
Default : No
Forced : No
Text #1
ID : 4
Format : UTF-8
Codec ID : S_TEXT/UTF8
Codec ID/Info : UTF-8 Plain Text
Title : forced
Language : Russian
Default : Yes
Forced : No
Text #2
ID : 5
Format : UTF-8
Codec ID : S_TEXT/UTF8
Codec ID/Info : UTF-8 Plain Text
Language : Russian
Default : No
Forced : No
Text #3
ID : 6
Format : UTF-8
Codec ID : S_TEXT/UTF8
Codec ID/Info : UTF-8 Plain Text
Title : forced
Language : English
Default : No
Forced : No
Text #4
ID : 7
Format : UTF-8
Codec ID : S_TEXT/UTF8
Codec ID/Info : UTF-8 Plain Text
Language : English
Default : No
Forced : No
Text #5
ID : 8
Format : UTF-8
Codec ID : S_TEXT/UTF8
Codec ID/Info : UTF-8 Plain Text
Title : SDH
Language : English
Default : No
Forced : No
Menu
00:00:00.000 : en:Chapter 01
00:08:18.707 : en:Chapter 02
00:13:18.923 : en:Chapter 03
00:19:31.462 : en:Chapter 04
00:24:40.145 : en:Chapter 05
00:28:54.107 : en:Chapter 06
00:35:41.389 : en:Chapter 07
00:39:36.040 : en:Chapter 08
00:47:00.067 : en:Chapter 09
00:50:57.638 : en:Chapter 10
00:56:49.740 : en:Chapter 11
01:00:43.849 : en:Chapter 12
01:08:58.009 : en:Chapter 13
01:16:03.851 : en:Chapter 14
01:19:38.440 : en:Chapter 15
01:23:16.408 : en:Chapter 16
01:26:26.848 : en:Chapter 17
01:33:34.943 : en:Chapter 18
01:37:02.984 : en:Chapter 19
01:39:47.982 : en:Chapter 20

x264

x264 [info]: frame I:1234 Avg QP:17.12 size: 75704
x264 [info]: frame P:31958 Avg QP:19.05 size: 27099
x264 [info]: frame B:125186 Avg QP:20.37 size: 11867
x264 [info]: consecutive B-frames: 1.7% 1.6% 6.1% 18.0% 13.6% 46.2% 5.7% 1.4% 1.5% 1.1% 0.9% 0.5% 0.6% 0.7% 0.3%
x264 [info]: mb I I16..4: 4.7% 82.7% 12.6%
x264 [info]: mb P I16..4: 1.6% 13.2% 1.3% P16..4: 38.7% 21.6% 14.3% 0.3% 0.1% skip: 8.9%
x264 [info]: mb B I16..4: 0.0% 1.4% 0.2% B16..8: 40.8% 11.8% 3.0% direct: 7.4% skip:35.5% L0:45.6% L1:45.9% BI: 8.5%
x264 [info]: 8x8 transform intra:83.4% inter:65.7%
x264 [info]: coded y,uvDC,uvAC intra: 88.4% 88.8% 76.9% inter: 30.6% 26.0% 8.3%
x264 [info]: i16 v,h,dc,p: 54% 11% 11% 24%
x264 [info]: i8 v,h,dc,ddl,ddr,vr,hd,vl,hu: 7% 7% 7% 11% 15% 14% 15% 11% 13%
x264 [info]: i4 v,h,dc,ddl,ddr,vr,hd,vl,hu: 6% 6% 3% 11% 17% 15% 15% 12% 14%
x264 [info]: i8c dc,h,v,p: 49% 18% 14% 19%
x264 [info]: Weighted P-Frames: Y:97.6% UV:4.9%
x264 [info]: ref P L0: 43.5% 8.8% 17.4% 7.6% 6.3% 4.4% 3.9% 2.1% 1.9% 2.2% 1.7% 0.2% 0.0%
x264 [info]: ref B L0: 68.3% 13.0% 7.0% 3.6% 2.5% 2.0% 1.8% 0.9% 0.6% 0.2%
x264 [info]: ref B L1: 92.1% 7.9%
x264 [info]: kb/s:2961.08

Скриншоты

с названием


If you like the topic, please click share to help develop our site.

To download the file disable ad blocking, and reload the page.

disable adblock How to disable ad blocking?

Download by magnet link 2.97 GB Download Torrent

Login using:

Similar topics

Мумия / The Mummy (1999) BDRip 1080 | D, P, P2, A
 7.25 GB   12 | 2   24-Apr-19 22:30   0


   
Current time is: 17-Jul 05:57 :: All times are UTC + 3