Мумия
The Mummy
«Отныне миром правят боги и монстры»

Страна: США
Жанр: фэнтези, боевик, триллер, приключения
Год выпуска: 2017
Продолжительность: 01:50:05
Перевод: Профессиональный (полное дублирование) [Blu-ray EUR]
Субтитры: русские (форсированные, полные), английские (форсированные, полные, SDH, SDH цветные)
Оригинальная аудиодорожка: английский
Режиссер: Алекс Куртцман / Alex Kurtzman
В ролях: Том Круз, Рассел Кроу, Аннабелль Уоллис, София Бутелла, Джейк Джонсон, Кортни Б. Вэнс, Марван Кензари, Саймон Атертон, Стивен Томпсон, Джеймс Арама, Мэтт Уилкас, Зом Капила
Описание:
Посреди безжалостной пустыни в величественном саркофаге погребена дочь египетского фараона, но настанет день, и она явится в наш мир вернуть себе то, что принадлежит ей по праву. Отныне миром правят боги и монстры.

Автор рипа: stalkerok
Сэмпл
Качество видео: BDRip-AVC [The Mummy (2017) Blu-ray Disc [EUR] - Highvoltage]
Формат видео: MKV
Видео: 2071 Кбит/сек, 1080*450 (2,40:1), в 23,976 (24000/1001) кадра/сек, AVC
Аудио #1: русский, 448 Кбит/сек, 48 КГц, 5.1, AC3
Аудио #2: английский, 384 Кбит/сек, 48 КГц, 5.1, AC3
Навигация по главам: есть

x264/MediaInfo

x264 [info]: frame I:1226 Avg QP:16.85 size: 61140
x264 [info]: frame P:37779 Avg QP:18.23 size: 18892
x264 [info]: frame B:119372 Avg QP:21.24 size: 7720
Общее
Уникальный идентификатор : 194909908196372330705300660368367969249 (0x92A24869DC81A76EA2BBEE409F4063E1)
Полное имя : M:\!Rips2017\The Mummy\The.Mummy.2017.BDRip-AVC.RUS.ENG.stalkerok.new-team.mkv
Формат : Matroska
Версия формата : Version 4 / Version 2
Размер файла : 2,23 Гбайт
Продолжительность : 1 ч. 50 м.
Общий поток : 2906 Кбит/сек
Название фильма : The Mummy (2017) (Rip by stalkerok)
Дата кодирования : UTC 2017-09-24 20:50:53
Программа кодирования : mkvmerge v8.6.1 ('Flying') 64bit
Библиотека кодирования : libebml v1.3.3 + libmatroska v1.4.4
Видео
Идентификатор : 1
Формат : AVC
Формат/Информация : Advanced Video Codec
Профиль формата : [email protected]
Параметр CABAC формата : Да
Параметр ReFrames формата : 14 кадров
Идентификатор кодека : V_MPEG4/ISO/AVC
Продолжительность : 1 ч. 50 м.
Битрейт : 2071 Кбит/сек
Ширина : 1080 пикселей
Высота : 450 пикселей
Соотношение сторон : 2,40:1
Режим частоты кадров : Постоянный
Частота кадров : 23,976 (24000/1001) кадра/сек
Цветовое пространство : YUV
Субдискретизация насыщенности : 4:2:0
Битовая глубина : 8 бит
Тип развёртки : Прогрессивная
Бит/(Пиксели*Кадры) : 0.178
Размер потока : 1,59 Гбайт (71%)
Заголовок : The Mummy (2017) (Rip by stalkerok)
Библиотека кодирования : x264 core 150 r2833kMod df79067
Настройки программы : cabac=1 / ref=14 / deblock=1:-3:-2 / analyse=0x3:0x133 / me=umh / subme=11 / psy=1 / fade_compensate=0.00 / psy_rd=1.00:0.00 / mixed_ref=1 / me_range=32 / chroma_me=1 / trellis=2 / 8x8dct=1 / cqm=0 / deadzone=21,11 / fast_pskip=0 / chroma_qp_offset=-2 / threads=12 / lookahead_threads=3 / sliced_threads=0 / nr=0 / decimate=1 / interlaced=0 / bluray_compat=0 / constrained_intra=0 / bframes=14 / b_pyramid=2 / b_adapt=2 / b_bias=0 / direct=3 / weightb=1 / open_gop=0 / weightp=2 / keyint=240 / keyint_min=23 / scenecut=40 / intra_refresh=0 / rc_lookahead=60 / rc=crf / mbtree=0 / crf=20.1000 / qcomp=0.65 / qpmin=0 / qpmax=69 / qpstep=4 / vbv_maxrate=50000 / vbv_bufsize=62500 / crf_max=0.0 / nal_hrd=none / filler=0 / ip_ratio=1.40 / pb_ratio=1.25 / aq=3:0.85
Default : Да
Forced : Нет
Аудио #1
Идентификатор : 2
Формат : AC-3
Формат/Информация : Audio Coding 3
Расширение режима : CM (complete main)
Параметр Endianness формата : Big
Идентификатор кодека : A_AC3
Продолжительность : 1 ч. 50 м.
Вид битрейта : Постоянный
Битрейт : 448 Кбит/сек
Каналы : 6 каналов
Расположение каналов : Front: L C R, Side: L R, LFE
Частота : 48,0 КГц
Частота кадров : 31,250 кадров/сек (1536 spf)
Метод сжатия : С потерями
Размер потока : 353 Мбайт (15%)
Заголовок : Blu-ray EUR
Язык : Russian
Default : Да
Forced : Нет
Аудио #2
Идентификатор : 3
Формат : AC-3
Формат/Информация : Audio Coding 3
Расширение режима : CM (complete main)
Параметр Endianness формата : Big
Идентификатор кодека : A_AC3
Продолжительность : 1 ч. 50 м.
Вид битрейта : Постоянный
Битрейт : 384 Кбит/сек
Каналы : 6 каналов
Расположение каналов : Front: L C R, Side: L R, LFE
Частота : 48,0 КГц
Частота кадров : 31,250 кадров/сек (1536 spf)
Метод сжатия : С потерями
Размер потока : 302 Мбайт (13%)
Заголовок : Blu-ray EUR
Язык : English
Default : Нет
Forced : Нет
Текст #1
Идентификатор : 4
Формат : UTF-8
Идентификатор кодека : S_TEXT/UTF8
Идентификатор кодека/Информация : UTF-8 Plain Text
Продолжительность : 1 ч. 39 м.
Битрейт : 2 бит/сек
Count of elements : 43
Размер потока : 1,72 Кбайт (0%)
Заголовок : Forced (Blu-ray EUR)
Язык : Russian
Default : Да
Forced : Нет
Текст #2
Идентификатор : 5
Формат : UTF-8
Идентификатор кодека : S_TEXT/UTF8
Идентификатор кодека/Информация : UTF-8 Plain Text
Продолжительность : 1 ч. 39 м.
Битрейт : 69 бит/сек
Count of elements : 1080
Размер потока : 51,1 Кбайт (0%)
Заголовок : Full (Blu-ray EUR)
Язык : Russian
Default : Нет
Forced : Нет
Текст #3
Идентификатор : 6
Формат : UTF-8
Идентификатор кодека : S_TEXT/UTF8
Идентификатор кодека/Информация : UTF-8 Plain Text
Продолжительность : 1 ч. 36 м.
Битрейт : 41 бит/сек
Count of elements : 1081
Размер потока : 29,4 Кбайт (0%)
Заголовок : Full
Язык : English
Default : Нет
Forced : Нет
Текст #4
Идентификатор : 7
Формат : UTF-8
Идентификатор кодека : S_TEXT/UTF8
Идентификатор кодека/Информация : UTF-8 Plain Text
Продолжительность : 1 ч. 37 м.
Битрейт : 49 бит/сек
Count of elements : 1357
Размер потока : 35,4 Кбайт (0%)
Заголовок : SDH
Язык : English
Default : Нет
Forced : Нет
Текст #5
Идентификатор : 8
Формат : UTF-8
Идентификатор кодека : S_TEXT/UTF8
Идентификатор кодека/Информация : UTF-8 Plain Text
Продолжительность : 1 ч. 37 м.
Битрейт : 73 бит/сек
Count of elements : 1357
Размер потока : 52,5 Кбайт (0%)
Заголовок : SDH COLORED
Язык : English
Default : Нет
Forced : Нет
Меню
00:00:00.000 : en:Chapter 1
00:08:18.706 : en:Chapter 2
00:13:18.923 : en:Chapter 3
00:19:31.461 : en:Chapter 4
00:24:40.145 : en:Chapter 5
00:28:54.107 : en:Chapter 6
00:35:41.389 : en:Chapter 7
00:39:36.040 : en:Chapter 8
00:47:00.067 : en:Chapter 9
00:50:57.637 : en:Chapter 10
00:56:49.739 : en:Chapter 11
01:00:43.848 : en:Chapter 12
01:08:58.008 : en:Chapter 13
01:16:03.850 : en:Chapter 14
01:19:38.440 : en:Chapter 15
01:23:16.408 : en:Chapter 16
01:26:26.848 : en:Chapter 17
01:33:34.942 : en:Chapter 18
01:37:02.983 : en:Chapter 19
01:39:47.982 : en:Chapter 20

Скриншоты


If you like the topic, please click share to help develop our site.

To download the file disable ad blocking, and reload the page.

disable adblock How to disable ad blocking?

Download by magnet link 2.23 GB Download Torrent

Login using:

Similar topics

Мумия / The Mummy (1999) BDRip 1080 | D, P, P2, A
 7.25 GB   12 | 2   24-Apr-19 22:30   0


   
Current time is: 17-Jul 05:19 :: All times are UTC + 3