-Счастливой охоты / Happy Hunting- -Страна: США
Жанр: триллер, ужасы
Год выпуска: 2017
Продолжительность: 01:30:51-Перевод: Одноголосый закадровый BadBajo
Субтитры: нет
Оригинальная аудиодорожка: нет-Режиссер: Джо Дайтш / Joe Dietsch, Люсиан Гибсон / Louie Gibson-В ролях: Мартин Дингл Уолл, Кен Лэлли, Кенни Вормолд, Коннор Уильямс, Гари Штурм, С.Дж. Бэйкер, Джереми Лосон, Майкл Типпс, Лизель Хэнсон, Кеннет Биллингс-Описание: Уоррен, алкоголик и наркоман, получает известие о кончине своей подруги, с которой он когда-то встречался. У подруги был ребенок, который, по всей видимости, был его. Уоррен отправляется в Мексику, чтобы решить этот вопрос. По пути он останавливается в небольшом городке. Традиционно в этом городе охотились на буйволов, но когда стада ушли, жители переключились на неблагополучную часть населения.- - -Качество видео: WEB-DLRip / Happy.Hunting.2017.1080p.WEB-DL.DD5.1.H264
Формат видео: AVI-Видео: XviD build 67, 720x288 (2.50:1), 23.976 fps, ~1809 kbps avg, 0.364 bit/pixel
Аудио: 48 kHz, AC3 Dolby Digital, 3/2 (L,C,R,l,r) + LFE ch, ~384 kbps avg-

MediaInfo

Complete name               : D:\Раздачи\Счастливой охоты (2017) BDRip_ivanes20031987.avi
Format : AVI
Format/Info : Audio Video Interleave
File size : 1.40 GiB
Duration : 1 h 30 min
Overall bit rate : 2 202 kb/s
Writing application : VirtualDubMod 1.5.10.3 (build 2550/release)
Writing library : VirtualDubMod build 2550/release
Video
ID : 0
Format : MPEG-4 Visual
Format profile : Advanced [email protected]
Format settings, BVOP : 1
Format settings, QPel : No
Format settings, GMC : No warppoints
Format settings, Matrix : Custom
Codec ID : XVID
Codec ID/Hint : XviD
Duration : 1 h 30 min
Bit rate : 1 809 kb/s
Width : 720 pixels
Height : 288 pixels
Display aspect ratio : 2.500
Frame rate : 23.976 (24000/1001) FPS
Color space : YUV
Chroma subsampling : 4:2:0
Bit depth : 8 bits
Scan type : Progressive
Compression mode : Lossy
Bits/(Pixel*Frame) : 0.364
Stream size : 1.15 GiB (82%)
Writing library : XviD 67
Audio
ID : 1
Format : AC-3
Format/Info : Audio Coding 3
Format settings, Endianness : Big
Codec ID : 2000
Duration : 1 h 30 min
Bit rate mode : Constant
Bit rate : 384 kb/s
Channel(s) : 6 channels
Channel positions : Front: L C R, Side: L R, LFE
Sampling rate : 48.0 kHz
Frame rate : 31.250 FPS (1536 SPF)
Bit depth : 16 bits
Compression mode : Lossy
Stream size : 250 MiB (17%)
Alignment : Split accross interleaves
Interleave, duration : 42 ms (1.00 video frame)
Interleave, preload duratio : 500 ms
Service kind : Complete Main

Скриншоты


If you like the topic, please click share to help develop our site.

To download the file disable ad blocking, and reload the page.

disable adblock How to disable ad blocking?

Download by magnet link 1.4 GB Download Torrent

Login using:

Similar topics

Счастливой охоты / Happy Hunting (2017) WEB-DL 1080p | L1
 3.43 GB   2 | 0   23-Sep-17 14:30   0


   
Current time is: 19-Jul 23:31 :: All times are UTC + 3