-Моя кузина Рэйчел / My Cousin Rachel- -Страна: Великобритания, США
Жанр: драма, мелодрама, детектив
Год выпуска: 2017
Продолжительность: 01:46:08-Перевод: Профессиональный (многоголосый закадровый) BD CEE
Субтитры: нет
Оригинальная аудиодорожка: нет-Режиссер: Роджер Мишелл / Roger Michell-В ролях: Сэм Клафлин, Рэйчел Вайз, Иэн Глен, Холлидей Грейнджер, Поппи Ли Фрайер, Эндрю Нотт, Вики Пеппердин, Пьерфранческо Фавино, Эндрю Хавилл, Кэтерин Пирс-Описание: Филип очень привязан к своему приемному отцу Эмброузу. Однако во время поездки по Италии Эмброуз знакомится с Рэйчел, своей дальней родственницей, женится на ней и вскоре умирает. Филип уверен, что коварная красотка Рэйчел убила его опекуна, чтобы заполучить состояние супруга. Оттачивая план мести, он не замечает, как сам влюбляется в Рэйчел.- - -Качество видео: BDRip / My.Cousin.Rachel.2017.REMUX.BluRay.1080p.AVC.DTS-HD.MA5.1-iFT
Формат видео: AVI-Видео: XviD build 67, 720x304 (2.35:1), 23.976 fps, ~1505 kbps avg, 0.287 bit/pixel
Аудио: 48 kHz, AC3 Dolby Digital, 3/2 (L,C,R,l,r) + LFE ch, ~448 kbps avg-

MediaInfo

Complete name               : D:\Раздачи\Моя кузина Рэйчел (2017) BDRip_ivanes20031987.avi
Format : AVI
Format/Info : Audio Video Interleave
File size : 1.45 GiB
Duration : 1 h 46 min
Overall bit rate : 1 962 kb/s
Writing application : VirtualDubMod 1.5.10.3 (build 2550/release)
Writing library : VirtualDubMod build 2550/release
Video
ID : 0
Format : MPEG-4 Visual
Format profile : Advanced [email protected]
Format settings, BVOP : 1
Format settings, QPel : No
Format settings, GMC : No warppoints
Format settings, Matrix : Custom
Codec ID : XVID
Codec ID/Hint : XviD
Duration : 1 h 46 min
Bit rate : 1 505 kb/s
Width : 720 pixels
Height : 304 pixels
Display aspect ratio : 2.35:1
Frame rate : 23.976 (24000/1001) FPS
Color space : YUV
Chroma subsampling : 4:2:0
Bit depth : 8 bits
Scan type : Progressive
Compression mode : Lossy
Bits/(Pixel*Frame) : 0.287
Stream size : 1.12 GiB (77%)
Writing library : XviD 67
Audio
ID : 1
Format : AC-3
Format/Info : Audio Coding 3
Format settings, Endianness : Big
Codec ID : 2000
Duration : 1 h 46 min
Bit rate mode : Constant
Bit rate : 448 kb/s
Channel(s) : 6 channels
Channel positions : Front: L C R, Side: L R, LFE
Sampling rate : 48.0 kHz
Frame rate : 31.250 FPS (1536 SPF)
Bit depth : 16 bits
Compression mode : Lossy
Stream size : 340 MiB (23%)
Alignment : Split accross interleaves
Interleave, duration : 42 ms (1.00 video frame)
Interleave, preload duratio : 500 ms
Service kind : Complete Main

Скриншоты


If you like the topic, please click share to help develop our site.

To download the file disable ad blocking, and reload the page.

disable adblock How to disable ad blocking?

Download by magnet link 1.45 GB Download Torrent

Login using:

Similar topics

Моя кузина Рэйчел / My Cousin Rachel (1952) BDRemux 1080р | P
 21.18 GB   0 | 0   28-Mar-18 20:30   0


   
Current time is: 20-Jul 10:34 :: All times are UTC + 3