Информация о фильме
Название: Экстро
Оригинальное название: Xtro
Год выхода: 1982
Жанр: ужасы, фантастика
Режиссер: Гарри Бромли Девенпорт
В ролях: Филип Сайер, Бернис Стиджерс, Danny Brainin, Мэриам д’Або, Саймон Нэш, Питер Манделл, Дэвид Карди, Анна Уинг, Роберт Файф, Кэтерин Бест
Описание: Папу маленького мальчика на его глазах похитили инопланетяне, а мама, не поверив рассказанной истории, решила, что муж просто ушел от нее. С тех пор прошло три года, у мамы появился новый сожитель, но парень все еще верил, что настоящий папа вернется. И он вернулся, будучи, правда, уже не таким, как раньше…

Страна: Великобритания, США
Продолжительность: 01:26:50
Перевод 1: Авторский (одноголосый, закадровый) Василий Горчаков
Перевод 2: Авторский (одноголосый, закадровый) Андрей Гаврилов
Перевод 3: Авторский (одноголосый, закадровый) Алексей Михалёв
Перевод 4: Авторский (одноголосый, закадровый) Сергей Визгунов
Перевод 5: Авторский (одноголосый, закадровый) Юрий Немахов
Файл
Качество: BDRemux 1080р
Видео: 1920x1080 / MPEG-4 AVC Video / 24430 kbps / 23.976 fps / 16:9 / High Profile 4.1
Аудио 1: Русский, AC3 2.0 224 Kbps 48,0 КГц (Gorchakov)
Аудио 2: Русский, AC3 2.0 224 Kbps 48,0 КГц (Gavrilov)
Аудио 3: Русский, AC3 2.0 224 Kbps 48,0 КГц (Mikhalev)
Аудио 4: Русский, AC3 2.0 224 Kbps 48,0 КГц (Vizgunov)
Аудио 5: Русский, AC3 2.0 224 Kbps 48,0 КГц (Nemakhov)
Аудио 6: English, AC3 5.1 448 Kbps 48,0 КГц (Original)
Аудио 7: English, AC3 2.0 256 Kbps 48,0 КГц (Original)

Скриншоты

MediaInfo

Общее
Уникальный идентификатор : 234500292345179285604380604964346391572 (0xB06B1D0E4DDD77D890B862EFD6ADEC14)
Полное имя : D:Xtro.1982.BDRemux.1080p.5xRus.Eng.mkv
Формат : Matroska
Версия формата : Version 4 / Version 2
Размер файла : 15,9 Гбайт
Продолжительность : 1 ч. 26 м.
Режим общего битрейта : Переменный
Общий поток : 26,3 Мбит/сек
Название фильма : Xtro
Дата кодирования : UTC 2017-09-26 13:37:30
Программа кодирования : mkvmerge v9.8.0 ('Kuglblids') 32bit
Библиотека кодирования : libebml v1.3.4 + libmatroska v1.4.5
Видео
Идентификатор : 1
Формат : AVC
Формат/Информация : Advanced Video Codec
Профиль формата : [email protected]
Параметр CABAC формата : Да
Параметр ReFrames формата : 3 кадра
Идентификатор кодека : V_MPEG4/ISO/AVC
Продолжительность : 1 ч. 26 м.
Вид битрейта : Переменный
Битрейт : 24,4 Мбит/сек
Максимальный битрейт : 35,0 Мбит/сек
Ширина : 1920 пикселей
Высота : 1080 пикселей
Соотношение сторон : 16:9
Режим частоты кадров : Постоянный
Частота кадров : 23,976 (24000/1001) кадра/сек
Стандарт вещания : NTSC
Цветовое пространство : YUV
Субдискретизация насыщенности : 4:2:0
Битовая глубина : 8 бит
Тип развёртки : Прогрессивная
Бит/(Пиксели*Кадры) : 0.491
Размер потока : 14,8 Гбайт (93%)
Заголовок : Xtro 1982 1080p GER Blu-ray AVC DD 5.1-Debaucherous
Default : Нет
Forced : Нет
Цветовой диапазон : Limited
Основные цвета : BT.709
Характеристики трансфера : BT.709
Коэффициенты матрицы : BT.709
Аудио #1
Идентификатор : 2
Формат : AC-3
Формат/Информация : Audio Coding 3
Расширение режима : CM (complete main)
Параметр Endianness формата : Big
Идентификатор кодека : A_AC3
Продолжительность : 1 ч. 26 м.
Вид битрейта : Постоянный
Битрейт : 224 Кбит/сек
Каналы : 2 канала
Расположение каналов : Front: L R
Частота : 48,0 КГц
Частота кадров : 31,250 кадров/сек (1536 spf)
Битовая глубина : 16 бит
Метод сжатия : С потерями
Размер потока : 139 Мбайт (1%)
Заголовок : Gorchakov AC3 2.0 224 kbps
Язык : Russian
Default : Нет
Forced : Нет
Аудио #2
Идентификатор : 3
Формат : AC-3
Формат/Информация : Audio Coding 3
Расширение режима : CM (complete main)
Параметр Endianness формата : Big
Идентификатор кодека : A_AC3
Продолжительность : 1 ч. 26 м.
Вид битрейта : Постоянный
Битрейт : 224 Кбит/сек
Каналы : 2 канала
Расположение каналов : Front: L R
Частота : 48,0 КГц
Частота кадров : 31,250 кадров/сек (1536 spf)
Битовая глубина : 16 бит
Метод сжатия : С потерями
Размер потока : 139 Мбайт (1%)
Заголовок : Gavrilov AC3 2.0 224 kbps
Язык : Russian
Default : Нет
Forced : Нет
Аудио #3
Идентификатор : 4
Формат : AC-3
Формат/Информация : Audio Coding 3
Расширение режима : CM (complete main)
Параметр Endianness формата : Big
Идентификатор кодека : A_AC3
Продолжительность : 1 ч. 26 м.
Вид битрейта : Постоянный
Битрейт : 224 Кбит/сек
Каналы : 2 канала
Расположение каналов : Front: L R
Частота : 48,0 КГц
Частота кадров : 31,250 кадров/сек (1536 spf)
Битовая глубина : 16 бит
Метод сжатия : С потерями
Размер потока : 139 Мбайт (1%)
Заголовок : Mikhalev AC3 2.0 224 kbps
Язык : Russian
Default : Нет
Forced : Нет
Аудио #4
Идентификатор : 5
Формат : AC-3
Формат/Информация : Audio Coding 3
Расширение режима : CM (complete main)
Параметр Endianness формата : Big
Идентификатор кодека : A_AC3
Продолжительность : 1 ч. 26 м.
Вид битрейта : Постоянный
Битрейт : 224 Кбит/сек
Каналы : 2 канала
Расположение каналов : Front: L R
Частота : 48,0 КГц
Частота кадров : 31,250 кадров/сек (1536 spf)
Битовая глубина : 16 бит
Метод сжатия : С потерями
Размер потока : 139 Мбайт (1%)
Заголовок : Vizgunov AC3 2.0 224 kbps
Язык : Russian
Default : Нет
Forced : Нет
Аудио #5
Идентификатор : 6
Формат : AC-3
Формат/Информация : Audio Coding 3
Расширение режима : CM (complete main)
Параметр Endianness формата : Big
Идентификатор кодека : A_AC3
Продолжительность : 1 ч. 26 м.
Вид битрейта : Постоянный
Битрейт : 224 Кбит/сек
Каналы : 2 канала
Расположение каналов : Front: L R
Частота : 48,0 КГц
Частота кадров : 31,250 кадров/сек (1536 spf)
Битовая глубина : 16 бит
Метод сжатия : С потерями
Размер потока : 139 Мбайт (1%)
Заголовок : Nemakhov AC3 2.0 224 kbps
Язык : Russian
Default : Нет
Forced : Нет
Аудио #6
Идентификатор : 7
Формат : AC-3
Формат/Информация : Audio Coding 3
Расширение режима : CM (complete main)
Параметр Endianness формата : Big
Идентификатор кодека : A_AC3
Продолжительность : 1 ч. 26 м.
Вид битрейта : Постоянный
Битрейт : 448 Кбит/сек
Каналы : 6 каналов
Расположение каналов : Front: L C R, Side: L R, LFE
Частота : 48,0 КГц
Частота кадров : 31,250 кадров/сек (1536 spf)
Битовая глубина : 16 бит
Метод сжатия : С потерями
Размер потока : 278 Мбайт (2%)
Заголовок : Original AC3 5.1 448 kbps
Язык : English
Default : Нет
Forced : Нет
Аудио #7
Идентификатор : 8
Формат : AC-3
Формат/Информация : Audio Coding 3
Расширение режима : CM (complete main)
Параметр Endianness формата : Big
Идентификатор кодека : A_AC3
Продолжительность : 1 ч. 26 м.
Вид битрейта : Постоянный
Битрейт : 256 Кбит/сек
Каналы : 2 канала
Расположение каналов : Front: L R
Частота : 48,0 КГц
Частота кадров : 31,250 кадров/сек (1536 spf)
Битовая глубина : 16 бит
Метод сжатия : С потерями
Размер потока : 159 Мбайт (1%)
Заголовок : Original AC3 2.0 256 kbps
Язык : English
Default : Нет
Forced : Нет
Текст #1
Идентификатор : 9
Формат : UTF-8
Идентификатор кодека : S_TEXT/UTF8
Идентификатор кодека/Информация : UTF-8 Plain Text
Продолжительность : 52 м. 4 с.
Битрейт : 3 бит/сек
Count of elements : 23
Размер потока : 1,28 Кбайт (0%)
Заголовок : Forced
Язык : Russian
Default : Да
Forced : Да
Текст #2
Идентификатор : 10
Формат : UTF-8
Идентификатор кодека : S_TEXT/UTF8
Идентификатор кодека/Информация : UTF-8 Plain Text
Продолжительность : 1 ч. 19 м.
Битрейт : 38 бит/сек
Count of elements : 571
Размер потока : 22,3 Кбайт (0%)
Язык : German
Default : Нет
Forced : Нет
Меню
00:00:00.000 : en:00:00:00.000
00:00:00.375 : en:00:00:00.375
00:13:56.961 : en:00:13:56.961
00:28:18.989 : en:00:28:18.989
00:43:42.620 : en:00:43:42.620
00:59:20.432 : en:00:59:20.432
01:10:18.423 : en:01:10:18.423
01:18:56.899 : en:01:18:56.899
01:24:22.808 : en:01:24:22.808

If you like the topic, please click share to help develop our site.

To download the file disable ad blocking, and reload the page.

disable adblock How to disable ad blocking?

Download by magnet link 15.93 GB Download Torrent

Login using:

Similar topics

Экстро / Xtro (1982) BDRip 720p от FREE-DOWNLOAD.SU | A
 4.15 GB   1 | 0   04-Oct-17 20:30   9
Экстро / Xtro (1982) DVDRip | A
 1.46 GB   0 | 0   17-Jan-17 16:07   1


   
Current time is: 20-Jul 00:12 :: All times are UTC + 3