Конан-разрушительConan the Destroyer«The most powerful legend of all is back in a new adventure»- Страна: США
Жанр: фэнтези, боевик, приключения
Год выпуска: 1984
Продолжительность: 01:41:16
Перевод: 2 x Профессиональный (многоголосый, закадровый), 2 x Профессиональный (двухголосый, закадровый), 3 x Авторский, Любительский (одноголосый)
Субтитры: русские, английские.-Режиссер: Ричард Флайшер / Richard Fleischer-В ролях: Арнольд Шварценеггер (Conan), Грейс Джонс (Zula), Уилт Чемберлен (Bombaata), Мако (Akiro «The Wizard»), Трейси Уолтер (Malak), Сара Дуглас (Queen Taramis), Оливия д’Або (Princess Jehnna), Пэт Роуч (Man Ape / Toth-Amon), Джефф Кори (Grand Vizier), Свен-Оле Торсен (Togra), Брюс Фляйшер (Village Heckler), Ферди Мэйн (The Leader)-Описание: Идеальная картина в жанре фэнтэзи с мечами, волшебниками и колдунами. Сюжет очень прост. Сексапильная королева нанимает Конана сопровождать юную принцессу в далекий замок, где находится драгоценный камень, способный высвободить могущественные и таинственные силы.-
MPAA: PG - Рекомендуется присутствие родителей-Семпл- -Качество: BDRip 1080p
Контейнер: MKV
Видео: AVC, 1920x816 (2.35:1), 16000 kbps, 23,976 fps, 0,426 bpp
Аудио №1: русский / AC3 / 5.1 / 48 kHz / 640 kbps / MVO ( Карусель )
Аудио №2: русский / AC3 / 5.1 / 48 kHz / 448 kbps / MVO ( Киномания )
Аудио №3: русский / AC3 / 2.0 / 48 kHz / 192 kbps / DVO ( HTB )
Аудио №4: русский / AC3 / 2.0 / 48 kHz / 192 kbps / DVO ( TB 6 )
Аудио №5: русский / AC3 / 5.1 / 48 kHz / 640 kbps / AVO ( Гаврилов )
Аудио №6: русский / AC3 / 5.1 / 48 kHz / 640 kbps / AVO ( Сербин )
Аудио №7: русский / AC3 / 2.0 / 48 kHz / 192 kbps / AVO ( Горчаков )
Аудио №8: русский / AC3 / 2.0 / 48 kHz / 192 kbps / VO
Аудио №9: английский / AC3 / 5.1 / 48 kHz / 640 kbps
Навигация по главам: есть-

Media Info

*****************************************************************
x264 [info]: frame I:869 Avg QP:18.41 size:237257
x264 [info]: frame P:28486 Avg QP:20.55 size:122551
x264 [info]: frame B:116324 Avg QP:22.60 size: 72638
x264 [info]: consecutive B-frames: 1.9% 2.3% 7.5% 7.1% 9.2% 53.8% 4.6% 1.9% 2.2% 2.5% 3.0% 3.6% 0.3%
*****************************************************************
Формат : Matroska
Версия формата : Version 2
Размер файла : 14,0 Гбайт
Продолжительность : 1 ч. 41 м.
Общий поток : 19,8 Мбит/сек
Название фильма : = Конан-разрушитель / Conan The Destroyer (1984) BDRip 1080p - KORSAR =
Дата кодирования : UTC 2017-10-09 14:14:34
Программа кодирования : mkvmerge v5.8.0 ('No Sleep / Pillow') built on Sep 2 2012 15:37:04
Библиотека кодирования : libebml v1.2.3 + libmatroska v1.3.0
Attachment : Yes
Видео
Идентификатор : 1
Формат : AVC
Формат/Информация : Advanced Video Codec
Профиль формата : [email protected]
Параметр CABAC формата : Да
Параметр ReFrames формата : 5 кадров
Идентификатор кодека : V_MPEG4/ISO/AVC
Продолжительность : 1 ч. 41 м.
Битрейт : 16,0 Мбит/сек
Ширина : 1920 пикселей
Высота : 816 пикселей
Соотношение сторон : 2,35:1
Режим частоты кадров : Постоянный
Частота кадров : 23,976 кадра/сек
Цветовое пространство : YUV
Субдискретизация насыщенности : 4:2:0
Битовая глубина : 8 бит
Тип развёртки : Прогрессивная
Бит/(Пиксели*Кадры) : 0.426
Размер потока : 11,0 Гбайт (79%)
Заголовок : Конан-разрушитель / Conan The Destroyer (1984) BDRip 1080p - KORSAR
Библиотека кодирования : x264 core 148 r2744kMod b97ae06
Настройки программы : cabac=1 / ref=5 / deblock=1:-3:-3 / analyse=0x3:0x113 / me=umh / subme=11 / psy=1 / fade_compensate=0.00 / psy_rd=1.00:0.00 / mixed_ref=1 / me_range=32 / chroma_me=1 / trellis=2 / 8x8dct=1 / cqm=0 / deadzone=21,11 / fast_pskip=0 / chroma_qp_offset=-2 / threads=12 / lookahead_threads=3 / sliced_threads=0 / nr=0 / decimate=0 / interlaced=0 / bluray_compat=0 / constrained_intra=0 / bframes=12 / b_pyramid=2 / b_adapt=2 / b_bias=0 / direct=3 / weightb=1 / open_gop=0 / weightp=2 / keyint=240 / keyint_min=23 / scenecut=40 / intra_refresh=0 / rc_lookahead=60 / rc=2pass / mbtree=0 / bitrate=16000 / ratetol=1.0 / qcomp=0.60 / qpmin=0 / qpmax=69 / qpstep=4 / cplxblur=20.0 / qblur=0.5 / vbv_maxrate=50000 / vbv_bufsize=62500 / nal_hrd=none / filler=0 / ip_ratio=1.40 / pb_ratio=1.30 / aq=1:0.80
Язык : English
Default : Да
Forced : Нет
Основные цвета : BT.709
Характеристики трансфера : BT.709
Коэффициенты матрицы : BT.709
Аудио #1
Идентификатор : 2
Формат : AC-3
Формат/Информация : Audio Coding 3
Расширение режима : CM (complete main)
Параметр Endianness формата : Big
Идентификатор кодека : A_AC3
Продолжительность : 1 ч. 41 м.
Вид битрейта : Постоянный
Битрейт : 640 Кбит/сек
Каналы : 6 каналов
Расположение каналов : Front: L C R, Side: L R, LFE
Частота : 48,0 КГц
Битовая глубина : 16 бит
Метод сжатия : С потерями
Размер потока : 464 Мбайт (3%)
Заголовок : MVO ( Карусель )
Язык : Russian
Default : Да
Forced : Нет
Аудио #2
Идентификатор : 3
Формат : AC-3
Формат/Информация : Audio Coding 3
Расширение режима : CM (complete main)
Параметр Endianness формата : Big
Идентификатор кодека : A_AC3
Продолжительность : 1 ч. 41 м.
Вид битрейта : Постоянный
Битрейт : 448 Кбит/сек
Каналы : 6 каналов
Расположение каналов : Front: L C R, Side: L R, LFE
Частота : 48,0 КГц
Битовая глубина : 16 бит
Метод сжатия : С потерями
Размер потока : 324 Мбайт (2%)
Заголовок : MVO ( Киномания )
Язык : Russian
Default : Нет
Forced : Нет
Аудио #3
Идентификатор : 4
Формат : AC-3
Формат/Информация : Audio Coding 3
Расширение режима : CM (complete main)
Параметр Endianness формата : Big
Идентификатор кодека : A_AC3
Продолжительность : 1 ч. 41 м.
Вид битрейта : Постоянный
Битрейт : 192 Кбит/сек
Каналы : 2 канала
Расположение каналов : Front: L R
Частота : 48,0 КГц
Битовая глубина : 16 бит
Метод сжатия : С потерями
Размер потока : 139 Мбайт (1%)
Заголовок : DVO ( HTB )
Язык : Russian
Default : Нет
Forced : Нет
Аудио #4
Идентификатор : 5
Формат : AC-3
Формат/Информация : Audio Coding 3
Расширение режима : CM (complete main)
Параметр Endianness формата : Big
Идентификатор кодека : A_AC3
Продолжительность : 1 ч. 41 м.
Вид битрейта : Постоянный
Битрейт : 192 Кбит/сек
Каналы : 2 канала
Расположение каналов : Front: L R
Частота : 48,0 КГц
Битовая глубина : 16 бит
Метод сжатия : С потерями
Размер потока : 139 Мбайт (1%)
Заголовок : DVO ( TB 6 )
Язык : Russian
Default : Нет
Forced : Нет
Аудио #5
Идентификатор : 6
Формат : AC-3
Формат/Информация : Audio Coding 3
Расширение режима : CM (complete main)
Параметр Endianness формата : Big
Идентификатор кодека : A_AC3
Продолжительность : 1 ч. 41 м.
Вид битрейта : Постоянный
Битрейт : 640 Кбит/сек
Каналы : 6 каналов
Расположение каналов : Front: L C R, Side: L R, LFE
Частота : 48,0 КГц
Битовая глубина : 16 бит
Метод сжатия : С потерями
Размер потока : 464 Мбайт (3%)
Заголовок : AVO ( Гаврилов )
Язык : Russian
Default : Нет
Forced : Нет
Аудио #6
Идентификатор : 7
Формат : AC-3
Формат/Информация : Audio Coding 3
Расширение режима : CM (complete main)
Параметр Endianness формата : Big
Идентификатор кодека : A_AC3
Продолжительность : 1 ч. 41 м.
Вид битрейта : Постоянный
Битрейт : 640 Кбит/сек
Каналы : 6 каналов
Расположение каналов : Front: L C R, Side: L R, LFE
Частота : 48,0 КГц
Битовая глубина : 16 бит
Метод сжатия : С потерями
Размер потока : 464 Мбайт (3%)
Заголовок : AVO ( Сербин )
Язык : Russian
Default : Нет
Forced : Нет
Аудио #7
Идентификатор : 8
Формат : AC-3
Формат/Информация : Audio Coding 3
Расширение режима : CM (complete main)
Параметр Endianness формата : Big
Идентификатор кодека : A_AC3
Продолжительность : 1 ч. 41 м.
Вид битрейта : Постоянный
Битрейт : 192 Кбит/сек
Каналы : 2 канала
Расположение каналов : Front: L R
Частота : 48,0 КГц
Битовая глубина : 16 бит
Метод сжатия : С потерями
Размер потока : 139 Мбайт (1%)
Заголовок : AVO ( Горчаков )
Язык : Russian
Default : Нет
Forced : Нет
Аудио #8
Идентификатор : 9
Формат : AC-3
Формат/Информация : Audio Coding 3
Расширение режима : CM (complete main)
Параметр Endianness формата : Big
Идентификатор кодека : A_AC3
Продолжительность : 1 ч. 41 м.
Вид битрейта : Постоянный
Битрейт : 192 Кбит/сек
Каналы : 2 канала
Расположение каналов : Front: L R
Частота : 48,0 КГц
Битовая глубина : 16 бит
Метод сжатия : С потерями
Размер потока : 139 Мбайт (1%)
Заголовок : VO
Язык : Russian
Default : Нет
Forced : Нет
Аудио #9
Идентификатор : 10
Формат : AC-3
Формат/Информация : Audio Coding 3
Расширение режима : CM (complete main)
Параметр Endianness формата : Big
Идентификатор кодека : A_AC3
Продолжительность : 1 ч. 41 м.
Вид битрейта : Постоянный
Битрейт : 640 Кбит/сек
Каналы : 6 каналов
Расположение каналов : Front: L C R, Side: L R, LFE
Частота : 48,0 КГц
Битовая глубина : 16 бит
Метод сжатия : С потерями
Размер потока : 464 Мбайт (3%)
Язык : English
Default : Нет
Forced : Нет
Текст #1
Идентификатор : 11
Формат : UTF-8
Идентификатор кодека : S_TEXT/UTF8
Идентификатор кодека/Информация : UTF-8 Plain Text
Язык : Russian
Default : Нет
Forced : Нет
Текст #2
Идентификатор : 12
Формат : UTF-8
Идентификатор кодека : S_TEXT/UTF8
Идентификатор кодека/Информация : UTF-8 Plain Text
Язык : English
Default : Нет
Forced : Нет
Текст #3
Идентификатор : 13
Формат : UTF-8
Идентификатор кодека : S_TEXT/UTF8
Идентификатор кодека/Информация : UTF-8 Plain Text
Заголовок : SDH
Язык : English
Default : Нет
Forced : Нет
Меню
00:00:00.000 : en:00:00:00.000
00:07:43.129 : en:00:07:43.129
00:17:46.565 : en:00:17:46.565
00:21:28.537 : en:00:21:28.537
00:28:38.967 : en:00:28:38.967
00:32:11.596 : en:00:32:11.596
00:38:02.113 : en:00:38:02.113
00:45:41.489 : en:00:45:41.489
00:52:35.194 : en:00:52:35.194
00:58:43.145 : en:00:58:43.145
01:01:30.854 : en:01:01:30.854
01:12:12.620 : en:01:12:12.620
01:18:04.054 : en:01:18:04.054
01:22:47.963 : en:01:22:47.963
01:28:26.343 : en:01:28:26.343
01:34:39.632 : en:01:34:39.632
-

Скриншоты


-

Доп. информация

smit009 - HTB, TB6
ЦитатаКто-то писал:Спасибо SelinaAnt за НТВ и Sp1endid за ТВ6. За синхронизацию звука благодарю JUSTKANT.
21Sepsis - VO
ЦитатаКто-то писал:Дорожка снята с собственной видеокассеты.
Ведро Укропа - Remux 1080p

If you like the topic, please click share to help develop our site.

To download the file disable ad blocking, and reload the page.

disable adblock How to disable ad blocking?

Download by magnet link 13.99 GB Download Torrent

Login using:

Similar topics

Неистовые / Furia (1999) DVDRip-AVC | A
 2.18 GB   1 | 0   03-Sep-16 15:16   28
Апгрейд / Upgrade (2018) BDRip 1080p от & | Jaskier
 5.68 GB   95 | 3   22-Sep-18 20:30   12
Коммандос / Commando (1985) BDRip от HQCLUB | Director's Cut
 1.45 GB   8 | 0   03-Sep-16 16:15   11
Доктор Стрэндж / Doctor Strange (2017) BDRip 720p HEVC | iTunes
 2.98 GB   0 | 0   29-May-17 21:30   10


   
Current time is: 21-Mar 16:32 :: All times are UTC + 3