John Pizzarelli (featuring Daniel Jobim) / Sinatra & Jobim @ 50
Жанр: Vocal Jazz
Носитель: CD
Страна-производитель диска (релиза): Russia
Год издания: 2017
Издатель (лейбл): Time Blues
Аудиокодек: FLAC (*.flac)
Тип рипа: image+.cue
Битрейт аудио: lossless
Продолжительность: 51'28''
Источник (релизер): RedHotBlues
Наличие сканов в содержимом раздачи: да (временный недокомплект)
Треклист:
CD: John Pizzarelli (featuring Daniel Jobim) - Sinatra & Jobim @ 50
01. John Pizzarelli / Baubles, bangles and beads (3:09) [0:03:09.35]
02. John Pizzarelli / Aqua de beber (4:07) [0:04:07.31]
03. John Pizzarelli / Meditation Quiet nights of quiet stars (3:59) [0:03:59.30]
04. John Pizzarelli / Dindi (3:53) [0:03:53.14]
05. John Pizzarelli / I concentrate on you Wave (5:32) [0:05:32.45]
06. John Pizzarelli / Antonio's song (5:04) [0:05:04.45]
07. John Pizzarelli / Two kites (4:33) [0:04:33.72]
08. John Pizzarelli / She's so sensitive (4:19) [0:04:19.41]
09. John Pizzarelli / Bonita (4:52) [0:04:52.41]
10. John Pizzarelli / If you never come to me Change partners (5:50) [0:05:50.14]
11. John Pizzarelli / Canto casual (6:03) [0:06:03.32]

Лог создания рипа

Exact Audio Copy V1.3 from 2. September 2016
Отчёт EAC об извлечении, выполненном 4. октября 2017, 1:46
John Pizzarelli (featuring Daniel Jobim) / Sinatra & Jobim @ 50
Дисковод: PLEXTOR DVDR PX-891SA Adapter: 1 ID: 2
Режим чтения : Достоверность
Использование точного потока : Да
Отключение кэша аудио : Да
Использование указателей C2 : Нет
Коррекция смещения при чтении : 6
Способность читать области Lead-in и Lead-out : Нет
Заполнение пропущенных сэмплов тишиной : Да
Удаление блоков с тишиной в начале и конце : Нет
При вычислениях CRC использовались нулевые сэмплы : Да
Интерфейс : Встроенный Win32-интерфейс для Win NT/2000
Выходной формат : Пользовательский кодировщик
Выбранный битрейт : 768 kBit/s
Качество : Высокий
Добавление ID3-тега : Нет
Утилита сжатия : C:\Program Files (x86)\Exact Audio Copy\FLAC\FLAC.EXE
Дополнительные параметры : -6 -V -T "ARTIST=%artist%" -T "TITLE=%title%" -T "ALBUM=%albumtitle%" -T "DATE=%year%" -T "TRACKNUMBER=%tracknr%" -T "GENRE=%genre%" -T "COMMENT=%comment%" -T "BAND=%albuminterpret%" -T "ALBUMARTIST=%albuminterpret%" -T "COMPOSER=%composer%" %haslyrics%--tag-from-file=LYRICS="%lyricsfile%"%haslyrics% -T "DISCNUMBER=%cdnumber%" -T "TOTALDISCS=%totalcds%" -T "TOTALTRACKS=%numtracks%" %hascover%--picture="%coverfile%"%hascover% %source% -o %dest%
TOC извлечённого CD
Трек | Старт | Длительность | Начальный сектор | Конечный сектор
---------------------------------------------------------------------
1 | 0:00.00 | 3:09.35 | 0 | 14209
2 | 3:09.35 | 4:07.31 | 14210 | 32765
3 | 7:16.66 | 3:59.30 | 32766 | 50720
4 | 11:16.21 | 3:53.14 | 50721 | 68209
5 | 15:09.35 | 5:32.45 | 68210 | 93154
6 | 20:42.05 | 5:04.45 | 93155 | 115999
7 | 25:46.50 | 4:33.72 | 116000 | 136546
8 | 30:20.47 | 4:19.41 | 136547 | 156012
9 | 34:40.13 | 4:52.41 | 156013 | 177953
10 | 39:32.54 | 5:50.14 | 177954 | 204217
11 | 45:22.68 | 6:03.32 | 204218 | 231474
Характеристики диапазона извлечения и сообщения об ошибках
Выбранный диапазон
Имя файла C:\Users\PENTIUM\Desktop\John Pizzarelli (featuring Daniel Jobim) - Sinatra & Jobim @ 50 2017 51'28''\John Pizzarelli (featuring Daniel Jobim) - Sinatra & Jobim @ 50.wav
Пиковый уровень 100.0 %
Скорость извлечения 8.8 X
Качество диапазона 100.0 %
CRC теста ED5BB46F
CRC копии ED5BB46F
Копирование... OK
Ошибок не произошло
Конец отчёта
---- CUETools DB Plugin V2.1.6
[CTDB TOCID: 6LXzP7qafoVLgfkUo6JFLwY8jOU-] found
Submit result: 6LXzP7qafoVLgfkUo6JFLwY8jOU- has been confirmed
Track | CTDB Status
1 | (10/10) Accurately ripped
2 | (10/10) Accurately ripped
3 | (10/10) Accurately ripped
4 | (10/10) Accurately ripped
5 | (10/10) Accurately ripped
6 | (10/10) Accurately ripped
7 | (10/10) Accurately ripped
8 | (10/10) Accurately ripped
9 | (10/10) Accurately ripped
10 | (10/10) Accurately ripped
11 | (10/10) Accurately ripped
==== Контрольная сумма отчёта 3A1716DAC84CC12705104B94BC138BAA76FFD0969C826A111B18AC83F29C95FE ====

Содержание индексной карты (.CUE)

16:23 07.10.2017REM GENRE Jazz
REM DATE 2017
REM DISCID 910C0E0B
REM COMMENT "ExactAudioCopy v1.3"
PERFORMER "John Pizzarelli (featuring Daniel Jobim)"
TITLE "Sinatra & Jobim @ 50"
REM COMPOSER ""
FILE "John Pizzarelli (featuring Daniel Jobim) - Sinatra & Jobim @ 50.flac" WAVE
TRACK 01 AUDIO
TITLE "Baubles, bangles and beads (3:09)"
PERFORMER "John Pizzarelli"
REM COMPOSER ""
INDEX 01 00:00:00
TRACK 02 AUDIO
TITLE "Aqua de beber (4:07)"
PERFORMER "John Pizzarelli"
REM COMPOSER ""
INDEX 01 03:09:35
TRACK 03 AUDIO
TITLE "Meditation Quiet nights of quiet stars (3:59)"
PERFORMER "John Pizzarelli"
REM COMPOSER ""
INDEX 01 07:16:66
TRACK 04 AUDIO
TITLE "Dindi (3:53)"
PERFORMER "John Pizzarelli"
REM COMPOSER ""
INDEX 01 11:16:21
TRACK 05 AUDIO
TITLE "I concentrate on you Wave (5:32)"
PERFORMER "John Pizzarelli"
REM COMPOSER ""
INDEX 01 15:09:35
TRACK 06 AUDIO
TITLE "Antonio's song (5:04)"
PERFORMER "John Pizzarelli"
REM COMPOSER ""
INDEX 01 20:42:05
TRACK 07 AUDIO
TITLE "Two kites (4:33)"
PERFORMER "John Pizzarelli"
REM COMPOSER ""
INDEX 01 25:46:50
TRACK 08 AUDIO
TITLE "She's so sensitive (4:19)"
PERFORMER "John Pizzarelli"
REM COMPOSER ""
INDEX 01 30:20:47
TRACK 09 AUDIO
TITLE "Bonita (4:52)"
PERFORMER "John Pizzarelli"
REM COMPOSER ""
INDEX 01 34:40:13
TRACK 10 AUDIO
TITLE "If you never come to me Change partners (5:50)"
PERFORMER "John Pizzarelli"
REM COMPOSER ""
INDEX 01 39:32:54
TRACK 11 AUDIO
TITLE "Canto casual (6:03)"
PERFORMER "John Pizzarelli"
REM COMPOSER ""
INDEX 01 45:22:68

Лог проверки качества

-----------------------
DON'T MODIFY THIS FILE
-----------------------
PERFORMER: auCDtect Task Manager, ver. 1.6.0 RC1 build 1.6.0.1
Copyright (c) 2008-2010 y-soft. All rights reserved
http://y-soft.org
ANALYZER: auCDtect: CD records authenticity detector, version 0.8.2
Copyright (c) 2004 Oleg Berngardt. All rights reserved.
Copyright (c) 2004 Alexander Djourik. All rights reserved.
FILE: John Pizzarelli (featuring Daniel Jobim) - Sinatra & Jobim @ 50.flac
Size: 305083616 Hash: E1505EEA8602206EEAA604E2FB1C7D5F Accuracy: -m0
Conclusion: CDDA 100%
Signature: 3F27B23F7D9108D1AA2E7BFABB93CAAC3E87097F
Доп. информация: я, конечно, дико извиняюсь за некомплект обложек, но, когда появится возможность, я сканы укомплектую!
John Pizzarelli lossless
http://********.org/forum/tracker.php?nm=John%20Pizzarelli%20%20lossless

To download the file disable ad blocking, and reload the page.

disable adblock How to disable ad blocking?

Download by magnet link 310 MB Download Torrent

Login using:

Загрузка...

Similar topics



   
Current time is: 19-Dec 19:28 :: All times are UTC + 3