Quincy Jones - Complete Recordings 1960-1962 (4CD Box Set)

Жанр: Smooth, Jazz-Pop, Big Band
Носитель: CD
Год издания: 2014
Издатель (лейбл): Enlightenment Records
Номер по каталогу: EN4CD9010
Аудиокодек: FLAC (*.flac)
Тип рипа: tracks+.cue
Битрейт аудио: lossless
Продолжительность: 04:44:59
Источник (релизер): исрабокс
Наличие сканов в содержимом раздачи: да
 
 

Disc One (66:25)

Треклист:
01. Pleasingly Plump (2:18)
02. G'Wan Train (6:21)
03. Moonglow (2:50)
04. Tone Poem (3:41)
05. You Turned the Tables on Me (2:31)
06. Chinese Checkers (2:42)
07. Our Love is Here to Stay (3:14)
08. The Midnight Sun Will Never Set (4:35)
09. Trouble on My Mind (2:32)
10. A Sunday Kind of Love (2:35)
11. Hot Sake (3:03)
12. Strike Up the Band (2:29)
13. Africana (3:11)
14. Meadowlands (3:12)
15. Rico Vacilon (2:17)
16. Under Paris Skies (2:34)
17. Mack the Knife (2:34)
18. Manolete De Espana (3:20)
19. Baia (Brazil) (3:56)
20. Come Back to Sorrento (2:29)
21. Dear Old Stockholm (4:02)
 

Лог создания рипа

Exact Audio Copy V1.0 beta 3 from 29. August 2011
EAC extraction logfile from 9. May 2014, 12:50
Quincy Jones / Complete Recordings 1960-1962 (Disc 1)
Used drive : ATAPI DVD A DH16ABSH Adapter: 2 ID: 1
Read mode : Secure
Utilize accurate stream : Yes
Defeat audio cache : Yes
Make use of C2 pointers : No
Read offset correction : 6
Overread into Lead-In and Lead-Out : No
Fill up missing offset samples with silence : Yes
Delete leading and trailing silent blocks : No
Null samples used in CRC calculations : Yes
Used interface : Native Win32 interface for Win NT & 2000
Gap handling : Appended to previous track
Used output format : User Defined Encoder
Selected bitrate : 128 kBit/s
Quality : High
Add ID3 tag : No
Command line compressor : C:\Program Files (x86)\Exact Audio Copy\FLAC\FLAC.EXE
Additional command line options : -8 -V -T "ARTIST=%artist%" -T "TITLE=%title%" -T "ALBUM=%albumtitle%" -T "DATE=%year%" -T "TRACKNUMBER=%tracknr%" -T "TOTALTRACKS=%numtracks%" -T "GENRE=%genre%" -T "ALBUMARTIST=%albumartist%" -T "ALBUM ARTIST=%albumartist%" -T "COMMENT=EAC Secure Mode, Test & Copy, AccurateRip, FLAC -8" %source%
TOC of the extracted CD
Track | Start | Length | Start sector | End sector
---------------------------------------------------------
1 | 0:00.00 | 2:17.69 | 0 | 10343
2 | 2:17.69 | 6:21.19 | 10344 | 38937
3 | 8:39.13 | 2:49.69 | 38938 | 51681
4 | 11:29.07 | 3:40.62 | 51682 | 68243
5 | 15:09.69 | 2:30.47 | 68244 | 79540
6 | 17:40.41 | 2:41.52 | 79541 | 91667
7 | 20:22.18 | 3:13.69 | 91668 | 106211
8 | 23:36.12 | 4:35.12 | 106212 | 126848
9 | 28:11.24 | 2:31.64 | 126849 | 138237
10 | 30:43.13 | 2:35.04 | 138238 | 149866
11 | 33:18.17 | 3:02.40 | 149867 | 163556
12 | 36:20.57 | 2:28.68 | 163557 | 174724
13 | 38:49.50 | 3:11.00 | 174725 | 189049
14 | 42:00.50 | 3:12.06 | 189050 | 203455
15 | 45:12.56 | 2:16.68 | 203456 | 213723
16 | 47:29.49 | 2:34.07 | 213724 | 225280
17 | 50:03.56 | 2:33.65 | 225281 | 236820
18 | 52:37.46 | 3:19.59 | 236821 | 251804
19 | 55:57.30 | 3:55.66 | 251805 | 269495
20 | 59:53.21 | 2:29.32 | 269496 | 280702
21 | 62:22.53 | 4:02.22 | 280703 | 298874
Track 1
Filename C:\Users\owner\Desktop\Quincy Jones - Complete Recordings 1960-1962 (1960-62) [FLAC]\Disc 1of4\01 - Pleasingly Plump.wav
Pre-gap length 0:00:02.00
Peak level 92.9 %
Extraction speed 1.6 X
Track quality 100.0 %
Test CRC E111A51C
Copy CRC E111A51C
Accurately ripped (confidence 1) [543E5FC5] (AR v2)
Copy OK
Track 2
Filename C:\Users\owner\Desktop\Quincy Jones - Complete Recordings 1960-1962 (1960-62) [FLAC]\Disc 1of4\02 - G'Wan Train.wav
Peak level 94.2 %
Extraction speed 2.0 X
Track quality 100.0 %
Test CRC 62B1E149
Copy CRC 62B1E149
Accurately ripped (confidence 1) [20926241] (AR v2)
Copy OK
Track 3
Filename C:\Users\owner\Desktop\Quincy Jones - Complete Recordings 1960-1962 (1960-62) [FLAC]\Disc 1of4\03 - Moonglow.wav
Peak level 95.8 %
Extraction speed 2.0 X
Track quality 100.0 %
Test CRC B9BEFB39
Copy CRC B9BEFB39
Accurately ripped (confidence 1) [85255593] (AR v2)
Copy OK
Track 4
Filename C:\Users\owner\Desktop\Quincy Jones - Complete Recordings 1960-1962 (1960-62) [FLAC]\Disc 1of4\04 - Tone Poem.wav
Peak level 88.1 %
Extraction speed 2.3 X
Track quality 100.0 %
Test CRC FC6D067D
Copy CRC FC6D067D
Accurately ripped (confidence 1) [16C03459] (AR v2)
Copy OK
Track 5
Filename C:\Users\owner\Desktop\Quincy Jones - Complete Recordings 1960-1962 (1960-62) [FLAC]\Disc 1of4\05 - You Turned the Tables on Me.wav
Peak level 91.8 %
Extraction speed 2.2 X
Track quality 100.0 %
Test CRC FB992CCD
Copy CRC FB992CCD
Accurately ripped (confidence 1) [C49F3BFD] (AR v2)
Copy OK
Track 6
Filename C:\Users\owner\Desktop\Quincy Jones - Complete Recordings 1960-1962 (1960-62) [FLAC]\Disc 1of4\06 - Chinese Checkers.wav
Peak level 87.4 %
Extraction speed 1.5 X
Track quality 99.9 %
Test CRC 025440E2
Copy CRC 025440E2
Accurately ripped (confidence 1) [B14D18B1] (AR v2)
Copy OK
Track 7
Filename C:\Users\owner\Desktop\Quincy Jones - Complete Recordings 1960-1962 (1960-62) [FLAC]\Disc 1of4\07 - Our Love is Here to Stay.wav
Peak level 84.9 %
Extraction speed 2.4 X
Track quality 100.0 %
Test CRC FE21DE99
Copy CRC FE21DE99
Accurately ripped (confidence 1) [E8BA74CC] (AR v2)
Copy OK
Track 8
Filename C:\Users\owner\Desktop\Quincy Jones - Complete Recordings 1960-1962 (1960-62) [FLAC]\Disc 1of4\08 - The Midnight Sun Will Never Set.wav
Peak level 85.8 %
Extraction speed 2.8 X
Track quality 100.0 %
Test CRC A2611A75
Copy CRC A2611A75
Accurately ripped (confidence 1) [51C941CD] (AR v2)
Copy OK
Track 9
Filename C:\Users\owner\Desktop\Quincy Jones - Complete Recordings 1960-1962 (1960-62) [FLAC]\Disc 1of4\09 - Trouble on My Mind.wav
Peak level 86.7 %
Extraction speed 2.6 X
Track quality 100.0 %
Test CRC 1E164C7B
Copy CRC 1E164C7B
Accurately ripped (confidence 1) [5FDE7DA4] (AR v2)
Copy OK
Track 10
Filename C:\Users\owner\Desktop\Quincy Jones - Complete Recordings 1960-1962 (1960-62) [FLAC]\Disc 1of4\10 - A Sunday Kind of Love.wav
Peak level 91.1 %
Extraction speed 1.8 X
Track quality 99.9 %
Test CRC D2EFFCC1
Copy CRC D2EFFCC1
Accurately ripped (confidence 1) [8C2AE52A] (AR v2)
Copy OK
Track 11
Filename C:\Users\owner\Desktop\Quincy Jones - Complete Recordings 1960-1962 (1960-62) [FLAC]\Disc 1of4\11 - Hot Sake.wav
Peak level 74.4 %
Extraction speed 2.8 X
Track quality 100.0 %
Test CRC 0E6D1C96
Copy CRC 0E6D1C96
Accurately ripped (confidence 1) [EA1B4F10] (AR v2)
Copy OK
Track 12
Filename C:\Users\owner\Desktop\Quincy Jones - Complete Recordings 1960-1962 (1960-62) [FLAC]\Disc 1of4\12 - Strike Up the Band.wav
Peak level 60.7 %
Extraction speed 2.8 X
Track quality 100.0 %
Test CRC 0A3BB4EA
Copy CRC 0A3BB4EA
Accurately ripped (confidence 1) [010D5CF0] (AR v2)
Copy OK
Track 13
Filename C:\Users\owner\Desktop\Quincy Jones - Complete Recordings 1960-1962 (1960-62) [FLAC]\Disc 1of4\13 - Africana.wav
Peak level 61.4 %
Extraction speed 2.8 X
Track quality 100.0 %
Test CRC 29B28E57
Copy CRC 29B28E57
Accurately ripped (confidence 1) [159A1B92] (AR v2)
Copy OK
Track 14
Filename C:\Users\owner\Desktop\Quincy Jones - Complete Recordings 1960-1962 (1960-62) [FLAC]\Disc 1of4\14 - Meadowlands.wav
Peak level 54.4 %
Extraction speed 2.8 X
Track quality 100.0 %
Test CRC 7110EF4D
Copy CRC 7110EF4D
Accurately ripped (confidence 1) [042C375B] (AR v2)
Copy OK
Track 15
Filename C:\Users\owner\Desktop\Quincy Jones - Complete Recordings 1960-1962 (1960-62) [FLAC]\Disc 1of4\15 - Rico Vacilon.wav
Peak level 56.0 %
Extraction speed 3.0 X
Track quality 100.0 %
Test CRC 0614493D
Copy CRC 0614493D
Accurately ripped (confidence 1) [E12801F4] (AR v2)
Copy OK
Track 16
Filename C:\Users\owner\Desktop\Quincy Jones - Complete Recordings 1960-1962 (1960-62) [FLAC]\Disc 1of4\16 - Under Paris Skies.wav
Peak level 50.9 %
Extraction speed 3.2 X
Track quality 100.0 %
Test CRC 651C7C14
Copy CRC 651C7C14
Accurately ripped (confidence 1) [E8ADC34B] (AR v2)
Copy OK
Track 17
Filename C:\Users\owner\Desktop\Quincy Jones - Complete Recordings 1960-1962 (1960-62) [FLAC]\Disc 1of4\17 - Mack the Knife.wav
Peak level 70.9 %
Extraction speed 3.2 X
Track quality 100.0 %
Test CRC D8D658E0
Copy CRC D8D658E0
Accurately ripped (confidence 1) [DDB82D70] (AR v2)
Copy OK
Track 18
Filename C:\Users\owner\Desktop\Quincy Jones - Complete Recordings 1960-1962 (1960-62) [FLAC]\Disc 1of4\18 - Manolete De Espana.wav
Peak level 70.2 %
Extraction speed 3.1 X
Track quality 100.0 %
Test CRC 2FBB08C8
Copy CRC 2FBB08C8
Accurately ripped (confidence 1) [B4CB67D6] (AR v2)
Copy OK
Track 19
Filename C:\Users\owner\Desktop\Quincy Jones - Complete Recordings 1960-1962 (1960-62) [FLAC]\Disc 1of4\19 - Baia (Brazil).wav
Peak level 67.2 %
Extraction speed 3.5 X
Track quality 100.0 %
Test CRC F4D6678D
Copy CRC F4D6678D
Accurately ripped (confidence 1) [C84D2348] (AR v2)
Copy OK
Track 20
Filename C:\Users\owner\Desktop\Quincy Jones - Complete Recordings 1960-1962 (1960-62) [FLAC]\Disc 1of4\20 - Come Back to Sorrento.wav
Peak level 52.9 %
Extraction speed 3.4 X
Track quality 100.0 %
Test CRC B4A772E3
Copy CRC B4A772E3
Accurately ripped (confidence 1) [61E52D4D] (AR v2)
Copy OK
Track 21
Filename C:\Users\owner\Desktop\Quincy Jones - Complete Recordings 1960-1962 (1960-62) [FLAC]\Disc 1of4\21 - Dear Old Stockholm.wav
Peak level 50.2 %
Extraction speed 3.8 X
Track quality 100.0 %
Test CRC 6F641281
Copy CRC 6F641281
Accurately ripped (confidence 1) [F7DE5288] (AR v2)
Copy OK
All tracks accurately ripped
No errors occurred
End of status report
==== Log checksum 620B4EAE45818157FC5CB7111FB29814EAE3D6BF0AF4CBF1D964826FEFF31554 ====

Содержание индексной карты (.CUE)

REM GENRE Jazz
REM DATE 2014
REM DISCID 0F0F9115
REM COMMENT "ExactAudioCopy v1.0b3"
PERFORMER "Quincy Jones"
TITLE "The Complete Recordings 1960-1962 (Disc 1)"
FILE "01 - Pleasingly Plump.wav" WAVE
TRACK 01 AUDIO
TITLE "Pleasingly Plump"
PERFORMER "Quincy Jones"
INDEX 01 00:00:00
FILE "02 - G'Wan Train.wav" WAVE
TRACK 02 AUDIO
TITLE "G'Wan Train"
PERFORMER "Quincy Jones"
INDEX 01 00:00:00
FILE "03 - Moonglow.wav" WAVE
TRACK 03 AUDIO
TITLE "Moonglow"
PERFORMER "Quincy Jones"
INDEX 01 00:00:00
FILE "04 - Tone Poem.wav" WAVE
TRACK 04 AUDIO
TITLE "Tone Poem"
PERFORMER "Quincy Jones"
INDEX 01 00:00:00
FILE "05 - You Turned the Tables on Me.wav" WAVE
TRACK 05 AUDIO
TITLE "You Turned the Tables on Me"
PERFORMER "Quincy Jones"
INDEX 01 00:00:00
FILE "06 - Chinese Checkers.wav" WAVE
TRACK 06 AUDIO
TITLE "Chinese Checkers"
PERFORMER "Quincy Jones"
INDEX 01 00:00:00
FILE "07 - Our Love is Here to Stay.wav" WAVE
TRACK 07 AUDIO
TITLE "Our Love is Here to Stay"
PERFORMER "Quincy Jones"
INDEX 01 00:00:00
FILE "08 - The Midnight Sun Will Never Set.wav" WAVE
TRACK 08 AUDIO
TITLE "The Midnight Sun Will Never Set"
PERFORMER "Quincy Jones"
INDEX 01 00:00:00
FILE "09 - Trouble on My Mind.wav" WAVE
TRACK 09 AUDIO
TITLE "Trouble on My Mind"
PERFORMER "Quincy Jones"
INDEX 01 00:00:00
FILE "10 - A Sunday Kind of Love.wav" WAVE
TRACK 10 AUDIO
TITLE "A Sunday Kind of Love"
PERFORMER "Quincy Jones"
INDEX 01 00:00:00
FILE "11 - Hot Sake.wav" WAVE
TRACK 11 AUDIO
TITLE "Hot Sake"
PERFORMER "Quincy Jones"
INDEX 01 00:00:00
FILE "12 - Strike Up the Band.wav" WAVE
TRACK 12 AUDIO
TITLE "Strike Up the Band"
PERFORMER "Quincy Jones"
INDEX 01 00:00:00
FILE "13 - Africana.wav" WAVE
TRACK 13 AUDIO
TITLE "Africana"
PERFORMER "Quincy Jones"
INDEX 01 00:00:00
FILE "14 - Meadowlands.wav" WAVE
TRACK 14 AUDIO
TITLE "Meadowlands"
PERFORMER "Quincy Jones"
INDEX 01 00:00:00
FILE "15 - Rico Vacilon.wav" WAVE
TRACK 15 AUDIO
TITLE "Rico Vacilon"
PERFORMER "Quincy Jones"
INDEX 01 00:00:00
FILE "16 - Under Paris Skies.wav" WAVE
TRACK 16 AUDIO
TITLE "Under Paris Skies"
PERFORMER "Quincy Jones"
INDEX 01 00:00:00
FILE "17 - Mack the Knife.wav" WAVE
TRACK 17 AUDIO
TITLE "Mack the Knife"
PERFORMER "Quincy Jones"
INDEX 01 00:00:00
FILE "18 - Manolete De Espana.wav" WAVE
TRACK 18 AUDIO
TITLE "Manolete De Espana"
PERFORMER "Quincy Jones"
INDEX 01 00:00:00
FILE "19 - Baia (Brazil).wav" WAVE
TRACK 19 AUDIO
TITLE "Baia (Brazil)"
PERFORMER "Quincy Jones"
INDEX 01 00:00:00
FILE "20 - Come Back to Sorrento.wav" WAVE
TRACK 20 AUDIO
TITLE "Come Back to Sorrento"
PERFORMER "Quincy Jones"
INDEX 01 00:00:00
FILE "21 - Dear Old Stockholm.wav" WAVE
TRACK 21 AUDIO
TITLE "Dear Old Stockholm"
PERFORMER "Quincy Jones"
INDEX 01 00:00:00

Disc Two (79:04)

Треклист:
01. Meet B.B. (3:59)
02. The Boy in the Tree (5:00)
03. Evening in Paris (5:18)
04. Air Mail Special (4:20)
05. Lester Leaps In (6:07)
06. G'Wan Train (6:03)
07. Banja Luka (5:55)
08. Ghana (4:00)
09. Air Mail Special (3:46)
10. Banja Luka (9:11)
11. Bess, You is My Women Now (5:29)
12. Solitude (3:39)
13. Stolen Moments (13:24)
14. Moanin' (2:52)
 

Лог создания рипа

Exact Audio Copy V1.0 beta 3 from 29. August 2011
EAC extraction logfile from 9. May 2014, 13:23
Quincy Jones / The Complete Recordings 1960-1962 (Disc 2)
Used drive : ATAPI DVD A DH16ABSH Adapter: 2 ID: 1
Read mode : Secure
Utilize accurate stream : Yes
Defeat audio cache : Yes
Make use of C2 pointers : No
Read offset correction : 6
Overread into Lead-In and Lead-Out : No
Fill up missing offset samples with silence : Yes
Delete leading and trailing silent blocks : No
Null samples used in CRC calculations : Yes
Used interface : Native Win32 interface for Win NT & 2000
Gap handling : Appended to previous track
Used output format : User Defined Encoder
Selected bitrate : 128 kBit/s
Quality : High
Add ID3 tag : No
Command line compressor : C:\Program Files (x86)\Exact Audio Copy\FLAC\FLAC.EXE
Additional command line options : -8 -V -T "ARTIST=%artist%" -T "TITLE=%title%" -T "ALBUM=%albumtitle%" -T "DATE=%year%" -T "TRACKNUMBER=%tracknr%" -T "TOTALTRACKS=%numtracks%" -T "GENRE=%genre%" -T "ALBUMARTIST=%albumartist%" -T "ALBUM ARTIST=%albumartist%" -T "COMMENT=EAC Secure Mode, Test & Copy, AccurateRip, FLAC -8" %source%
TOC of the extracted CD
Track | Start | Length | Start sector | End sector
---------------------------------------------------------
1 | 0:00.00 | 3:59.07 | 0 | 17931
2 | 3:59.07 | 5:00.29 | 17932 | 40460
3 | 8:59.36 | 5:17.38 | 40461 | 64273
4 | 14:16.74 | 4:20.08 | 64274 | 83781
5 | 18:37.07 | 6:07.00 | 83782 | 111306
6 | 24:44.07 | 6:03.30 | 111307 | 138561
7 | 30:47.37 | 5:54.63 | 138562 | 165174
8 | 36:42.25 | 4:00.05 | 165175 | 183179
9 | 40:42.30 | 3:45.74 | 183180 | 200128
10 | 44:28.29 | 9:11.30 | 200129 | 241483
11 | 53:39.59 | 5:29.01 | 241484 | 266159
12 | 59:08.60 | 3:39.10 | 266160 | 282594
13 | 62:47.70 | 13:23.73 | 282595 | 342892
14 | 76:11.68 | 2:52.07 | 342893 | 355799
Track 1
Filename C:\Users\owner\Desktop\Quincy Jones - Complete Recordings 1960-1962 (1960-62) [FLAC]\Disc 2of4\01 - Meet B.B..wav
Pre-gap length 0:00:02.00
Peak level 100.0 %
Extraction speed 3.8 X
Track quality 100.0 %
Test CRC 70880931
Copy CRC 70880931
Accurately ripped (confidence 1) [2B902288] (AR v2)
Copy OK
Track 2
Filename C:\Users\owner\Desktop\Quincy Jones - Complete Recordings 1960-1962 (1960-62) [FLAC]\Disc 2of4\02 - The Boy in the Tree.wav
Peak level 100.0 %
Extraction speed 4.3 X
Track quality 100.0 %
Test CRC DE16F563
Copy CRC DE16F563
Accurately ripped (confidence 1) [F7330DC2] (AR v2)
Copy OK
Track 3
Filename C:\Users\owner\Desktop\Quincy Jones - Complete Recordings 1960-1962 (1960-62) [FLAC]\Disc 2of4\03 - Evening in Paris.wav
Peak level 98.1 %
Extraction speed 4.8 X
Track quality 100.0 %
Test CRC 8F9DA6B6
Copy CRC 8F9DA6B6
Accurately ripped (confidence 1) [9FF38642] (AR v2)
Copy OK
Track 4
Filename C:\Users\owner\Desktop\Quincy Jones - Complete Recordings 1960-1962 (1960-62) [FLAC]\Disc 2of4\04 - Air Mail Special.wav
Peak level 100.0 %
Extraction speed 5.0 X
Track quality 100.0 %
Test CRC 76DB82AB
Copy CRC 76DB82AB
Accurately ripped (confidence 1) [641D5331] (AR v2)
Copy OK
Track 5
Filename C:\Users\owner\Desktop\Quincy Jones - Complete Recordings 1960-1962 (1960-62) [FLAC]\Disc 2of4\05 - Lester Leaps In.wav
Peak level 98.1 %
Extraction speed 5.6 X
Track quality 100.0 %
Test CRC CBECC419
Copy CRC CBECC419
Accurately ripped (confidence 1) [6A52522D] (AR v2)
Copy OK
Track 6
Filename C:\Users\owner\Desktop\Quincy Jones - Complete Recordings 1960-1962 (1960-62) [FLAC]\Disc 2of4\06 - G'Wan Train.wav
Peak level 98.5 %
Extraction speed 5.9 X
Track quality 100.0 %
Test CRC 8F71C706
Copy CRC 8F71C706
Accurately ripped (confidence 1) [AD835E14] (AR v2)
Copy OK
Track 7
Filename C:\Users\owner\Desktop\Quincy Jones - Complete Recordings 1960-1962 (1960-62) [FLAC]\Disc 2of4\07 - Banja Luka.wav
Peak level 100.0 %
Extraction speed 6.3 X
Track quality 100.0 %
Test CRC 32C2A29C
Copy CRC 32C2A29C
Accurately ripped (confidence 1) [D26F9544] (AR v2)
Copy OK
Track 8
Filename C:\Users\owner\Desktop\Quincy Jones - Complete Recordings 1960-1962 (1960-62) [FLAC]\Disc 2of4\08 - Ghana.wav
Peak level 94.4 %
Extraction speed 6.3 X
Track quality 100.0 %
Test CRC 238484A1
Copy CRC 238484A1
Accurately ripped (confidence 1) [5546FD5B] (AR v2)
Copy OK
Track 9
Filename C:\Users\owner\Desktop\Quincy Jones - Complete Recordings 1960-1962 (1960-62) [FLAC]\Disc 2of4\09 - Air Mail Special.wav
Peak level 100.0 %
Extraction speed 6.5 X
Track quality 100.0 %
Test CRC 2D63229F
Copy CRC 2D63229F
Accurately ripped (confidence 1) [0F33FA96] (AR v2)
Copy OK
Track 10
Filename C:\Users\owner\Desktop\Quincy Jones - Complete Recordings 1960-1962 (1960-62) [FLAC]\Disc 2of4\10 - Banja Luka.wav
Peak level 100.0 %
Extraction speed 7.4 X
Track quality 100.0 %
Test CRC D955574E
Copy CRC D955574E
Accurately ripped (confidence 1) [66B22189] (AR v2)
Copy OK
Track 11
Filename C:\Users\owner\Desktop\Quincy Jones - Complete Recordings 1960-1962 (1960-62) [FLAC]\Disc 2of4\11 - Bess, You is My Women Now.wav
Peak level 100.0 %
Extraction speed 6.2 X
Track quality 99.9 %
Test CRC 1836426E
Copy CRC 1836426E
Accurately ripped (confidence 1) [0E9BB561] (AR v2)
Copy OK
Track 12
Filename C:\Users\owner\Desktop\Quincy Jones - Complete Recordings 1960-1962 (1960-62) [FLAC]\Disc 2of4\12 - Solitude.wav
Peak level 100.0 %
Extraction speed 5.6 X
Track quality 99.9 %
Test CRC 4F194304
Copy CRC 4F194304
Accurately ripped (confidence 1) [3A367AC6] (AR v2)
Copy OK
Track 13
Filename C:\Users\owner\Desktop\Quincy Jones - Complete Recordings 1960-1962 (1960-62) [FLAC]\Disc 2of4\13 - Stolen Moments.wav
Peak level 100.0 %
Extraction speed 8.5 X
Track quality 100.0 %
Test CRC 83A4FA6D
Copy CRC 83A4FA6D
Accurately ripped (confidence 1) [E71915A7] (AR v2)
Copy OK
Track 14
Filename C:\Users\owner\Desktop\Quincy Jones - Complete Recordings 1960-1962 (1960-62) [FLAC]\Disc 2of4\14 - Moanin'.wav
Peak level 100.0 %
Extraction speed 7.6 X
Track quality 100.0 %
Test CRC 12CB8A1F
Copy CRC 12CB8A1F
Accurately ripped (confidence 1) [7DBD2F21] (AR v2)
Copy OK
All tracks accurately ripped
No errors occurred
End of status report
==== Log checksum 44D27607D03A3050FD7DFA60DE03B1960B18963EF39A19A99ADB6A47783DB413 ====

Содержание индексной карты (.CUE)

REM GENRE Jazz
REM DATE 2014
REM DISCID C312880E
REM COMMENT "ExactAudioCopy v1.0b3"
PERFORMER "Quincy Jones"
TITLE "The Complete Recordings 1960-1962 (Disc 2)"
FILE "01 - Meet B.B..wav" WAVE
TRACK 01 AUDIO
TITLE "Meet B.B."
PERFORMER "Quincy Jones"
INDEX 01 00:00:00
FILE "02 - The Boy in the Tree.wav" WAVE
TRACK 02 AUDIO
TITLE "The Boy in the Tree"
PERFORMER "Quincy Jones"
INDEX 01 00:00:00
FILE "03 - Evening in Paris.wav" WAVE
TRACK 03 AUDIO
TITLE "Evening in Paris"
PERFORMER "Quincy Jones"
INDEX 01 00:00:00
FILE "04 - Air Mail Special.wav" WAVE
TRACK 04 AUDIO
TITLE "Air Mail Special"
PERFORMER "Quincy Jones"
INDEX 01 00:00:00
FILE "05 - Lester Leaps In.wav" WAVE
TRACK 05 AUDIO
TITLE "Lester Leaps In"
PERFORMER "Quincy Jones"
INDEX 01 00:00:00
FILE "06 - G'Wan Train.wav" WAVE
TRACK 06 AUDIO
TITLE "G'Wan Train"
PERFORMER "Quincy Jones"
INDEX 01 00:00:00
FILE "07 - Banja Luka.wav" WAVE
TRACK 07 AUDIO
TITLE "Banja Luka"
PERFORMER "Quincy Jones"
INDEX 01 00:00:00
FILE "08 - Ghana.wav" WAVE
TRACK 08 AUDIO
TITLE "Ghana"
PERFORMER "Quincy Jones"
INDEX 01 00:00:00
FILE "09 - Air Mail Special.wav" WAVE
TRACK 09 AUDIO
TITLE "Air Mail Special"
PERFORMER "Quincy Jones"
INDEX 01 00:00:00
FILE "10 - Banja Luka.wav" WAVE
TRACK 10 AUDIO
TITLE "Banja Luka"
PERFORMER "Quincy Jones"
INDEX 01 00:00:00
FILE "11 - Bess, You is My Women Now.wav" WAVE
TRACK 11 AUDIO
TITLE "Bess, You is My Women Now"
PERFORMER "Quincy Jones"
INDEX 01 00:00:00
FILE "12 - Solitude.wav" WAVE
TRACK 12 AUDIO
TITLE "Solitude"
PERFORMER "Quincy Jones"
INDEX 01 00:00:00
FILE "13 - Stolen Moments.wav" WAVE
TRACK 13 AUDIO
TITLE "Stolen Moments"
PERFORMER "Quincy Jones"
INDEX 01 00:00:00
FILE "14 - Moanin'.wav" WAVE
TRACK 14 AUDIO
TITLE "Moanin'"
PERFORMER "Quincy Jones"
INDEX 01 00:00:00

Disc Three (74:43)

Треклист:
01. Main Title (2:20)
02. The Boy in the Tree (3:49)
03. Crucifixion March (2:40)
04. Fulla' Fira (2:33)
05. The Quintessence (4:26)
06. Robot Portrait (5:30)
07. Little Karen (3:47)
08. Straight, No Chaser (2:29)
09. For Lena and Lennie (4:20)
10. Hard Sock Dance (3:22)
11. Invitation (3:37)
12. The Twitch (3:49)
13. Alright, Okay, You Win (2:48)
14. I'm Falling For You, Fool That I Am, Everything I Have is For You (8:01)
15. In the Still of the Night (3:49)
16. Don't Get Around Much Anymore, I'm Just a Lucky So and So, Caravan, Sophisticated Lady (10:37)
17. Work Song (3:59)
18. Ma (She's Making Eyes At Me) (2:46)
 

Лог создания рипа

Exact Audio Copy V1.0 beta 3 from 29. August 2011
EAC extraction logfile from 9. May 2014, 13:57
Quincy Jones / The Complete Recordings 1960-1962 (Disc 3)
Used drive : ATAPI DVD A DH16ABSH Adapter: 2 ID: 1
Read mode : Secure
Utilize accurate stream : Yes
Defeat audio cache : Yes
Make use of C2 pointers : No
Read offset correction : 6
Overread into Lead-In and Lead-Out : No
Fill up missing offset samples with silence : Yes
Delete leading and trailing silent blocks : No
Null samples used in CRC calculations : Yes
Used interface : Native Win32 interface for Win NT & 2000
Gap handling : Appended to previous track
Used output format : User Defined Encoder
Selected bitrate : 128 kBit/s
Quality : High
Add ID3 tag : No
Command line compressor : C:\Program Files (x86)\Exact Audio Copy\FLAC\FLAC.EXE
Additional command line options : -8 -V -T "ARTIST=%artist%" -T "TITLE=%title%" -T "ALBUM=%albumtitle%" -T "DATE=%year%" -T "TRACKNUMBER=%tracknr%" -T "TOTALTRACKS=%numtracks%" -T "GENRE=%genre%" -T "ALBUMARTIST=%albumartist%" -T "ALBUM ARTIST=%albumartist%" -T "COMMENT=EAC Secure Mode, Test & Copy, AccurateRip, FLAC -8" %source%
TOC of the extracted CD
Track | Start | Length | Start sector | End sector
---------------------------------------------------------
1 | 0:00.00 | 2:20.05 | 0 | 10504
2 | 2:20.05 | 3:48.60 | 10505 | 27664
3 | 6:08.65 | 2:39.70 | 27665 | 39659
4 | 8:48.60 | 2:32.68 | 39660 | 51127
5 | 11:21.53 | 4:25.49 | 51128 | 71051
6 | 15:47.27 | 5:30.09 | 71052 | 95810
7 | 21:17.36 | 3:47.33 | 95811 | 112868
8 | 25:04.69 | 2:28.68 | 112869 | 124036
9 | 27:33.62 | 4:19.61 | 124037 | 143522
10 | 31:53.48 | 3:22.35 | 143523 | 158707
11 | 35:16.08 | 3:37.32 | 158708 | 175014
12 | 38:53.40 | 3:48.68 | 175015 | 192182
13 | 42:42.33 | 2:47.66 | 192183 | 204773
14 | 45:30.24 | 8:01.10 | 204774 | 240858
15 | 53:31.34 | 3:49.20 | 240859 | 258053
16 | 57:20.54 | 10:37.33 | 258054 | 305861
17 | 67:58.12 | 3:58.41 | 305862 | 323752
18 | 71:56.53 | 2:46.22 | 323753 | 336224
Track 1
Filename C:\Users\owner\Desktop\Quincy Jones - Complete Recordings 1960-1962 (1960-62) [FLAC]\Disc 3of4\01 - Main Title.wav
Pre-gap length 0:00:02.00
Peak level 100.0 %
Extraction speed 2.3 X
Track quality 99.9 %
Test CRC 4909A4AB
Copy CRC 4909A4AB
Accurately ripped (confidence 1) [D194EF5A] (AR v2)
Copy OK
Track 2
Filename C:\Users\owner\Desktop\Quincy Jones - Complete Recordings 1960-1962 (1960-62) [FLAC]\Disc 3of4\02 - The Boy in the Tree.wav
Peak level 100.0 %
Extraction speed 3.6 X
Track quality 100.0 %
Test CRC 2CDF0ADE
Copy CRC 2CDF0ADE
Accurately ripped (confidence 1) [CBF1BC42] (AR v2)
Copy OK
Track 3
Filename C:\Users\owner\Desktop\Quincy Jones - Complete Recordings 1960-1962 (1960-62) [FLAC]\Disc 3of4\03 - Crucifixion March.wav
Peak level 100.0 %
Extraction speed 3.8 X
Track quality 100.0 %
Test CRC FB9003E6
Copy CRC FB9003E6
Accurately ripped (confidence 1) [336EA56F] (AR v2)
Copy OK
Track 4
Filename C:\Users\owner\Desktop\Quincy Jones - Complete Recordings 1960-1962 (1960-62) [FLAC]\Disc 3of4\04 - Fulla' Fira.wav
Peak level 100.0 %
Extraction speed 4.0 X
Track quality 100.0 %
Test CRC AE21DEAA
Copy CRC AE21DEAA
Accurately ripped (confidence 1) [1A0C3DA1] (AR v2)
Copy OK
Track 5
Filename C:\Users\owner\Desktop\Quincy Jones - Complete Recordings 1960-1962 (1960-62) [FLAC]\Disc 3of4\05 - The Quintessence.wav
Peak level 100.0 %
Extraction speed 4.7 X
Track quality 100.0 %
Test CRC 3BBB6202
Copy CRC 3BBB6202
Accurately ripped (confidence 1) [A72CDCE1] (AR v2)
Copy OK
Track 6
Filename C:\Users\owner\Desktop\Quincy Jones - Complete Recordings 1960-1962 (1960-62) [FLAC]\Disc 3of4\06 - Robot Portrait.wav
Peak level 100.0 %
Extraction speed 5.1 X
Track quality 100.0 %
Test CRC 3D27BA22
Copy CRC 3D27BA22
Accurately ripped (confidence 1) [743A984C] (AR v2)
Copy OK
Track 7
Filename C:\Users\owner\Desktop\Quincy Jones - Complete Recordings 1960-1962 (1960-62) [FLAC]\Disc 3of4\07 - Little Karen.wav
Peak level 100.0 %
Extraction speed 5.1 X
Track quality 100.0 %
Test CRC 9273588B
Copy CRC 9273588B
Accurately ripped (confidence 1) [F697DA53] (AR v2)
Copy OK
Track 8
Filename C:\Users\owner\Desktop\Quincy Jones - Complete Recordings 1960-1962 (1960-62) [FLAC]\Disc 3of4\08 - Straight, No Chaser.wav
Peak level 100.0 %
Extraction speed 4.9 X
Track quality 100.0 %
Test CRC E8AF5EE2
Copy CRC E8AF5EE2
Accurately ripped (confidence 1) [79BB94E3] (AR v2)
Copy OK
Track 9
Filename C:\Users\owner\Desktop\Quincy Jones - Complete Recordings 1960-1962 (1960-62) [FLAC]\Disc 3of4\09 - For Lena and Lennie.wav
Peak level 100.0 %
Extraction speed 5.6 X
Track quality 100.0 %
Test CRC 1DE0721A
Copy CRC 1DE0721A
Accurately ripped (confidence 1) [25343603] (AR v2)
Copy OK
Track 10
Filename C:\Users\owner\Desktop\Quincy Jones - Complete Recordings 1960-1962 (1960-62) [FLAC]\Disc 3of4\10 - Hard Sock Dance.wav
Peak level 100.0 %
Extraction speed 5.6 X
Track quality 100.0 %
Test CRC 5756C8EC
Copy CRC 5756C8EC
Accurately ripped (confidence 1) [E120454E] (AR v2)
Copy OK
Track 11
Filename C:\Users\owner\Desktop\Quincy Jones - Complete Recordings 1960-1962 (1960-62) [FLAC]\Disc 3of4\11 - Invitation.wav
Peak level 100.0 %
Extraction speed 4.6 X
Track quality 99.9 %
Test CRC F04F2CFB
Copy CRC F04F2CFB
Accurately ripped (confidence 1) [FC715050] (AR v2)
Copy OK
Track 12
Filename C:\Users\owner\Desktop\Quincy Jones - Complete Recordings 1960-1962 (1960-62) [FLAC]\Disc 3of4\12 - The Twitch.wav
Peak level 100.0 %
Extraction speed 6.1 X
Track quality 100.0 %
Test CRC 74023B0E
Copy CRC 74023B0E
Accurately ripped (confidence 1) [6B09D191] (AR v2)
Copy OK
Track 13
Filename C:\Users\owner\Desktop\Quincy Jones - Complete Recordings 1960-1962 (1960-62) [FLAC]\Disc 3of4\13 - Alright, Okay, You Win.wav
Peak level 100.0 %
Extraction speed 6.0 X
Track quality 100.0 %
Test CRC CBEDA535
Copy CRC CBEDA535
Accurately ripped (confidence 1) [E825F29D] (AR v2)
Copy OK
Track 14
Filename C:\Users\owner\Desktop\Quincy Jones - Complete Recordings 1960-1962 (1960-62) [FLAC]\Disc 3of4\14 - I'm Falling For You, Fool That I Am, Everything I Have is For You.wav
Peak level 92.6 %
Extraction speed 7.1 X
Track quality 100.0 %
Test CRC F983A2F9
Copy CRC F983A2F9
Accurately ripped (confidence 1) [2AE18C71] (AR v2)
Copy OK
Track 15
Filename C:\Users\owner\Desktop\Quincy Jones - Complete Recordings 1960-1962 (1960-62) [FLAC]\Disc 3of4\15 - In the Still of the Night.wav
Peak level 95.0 %
Extraction speed 6.6 X
Track quality 100.0 %
Test CRC 818C7BEB
Copy CRC 818C7BEB
Accurately ripped (confidence 1) [B07966C6] (AR v2)
Copy OK
Track 16
Filename C:\Users\owner\Desktop\Quincy Jones - Complete Recordings 1960-1962 (1960-62) [FLAC]\Disc 3of4\16 - Don't Get Around Much Anymore, I'm Just a Lucky So and So, Caravan, Sophisticated Lady.wav
Peak level 100.0 %
Extraction speed 6.7 X
Track quality 99.9 %
Test CRC F37AA8C2
Copy CRC F37AA8C2
Accurately ripped (confidence 1) [59C9A1CD] (AR v2)
Copy OK
Track 17
Filename C:\Users\owner\Desktop\Quincy Jones - Complete Recordings 1960-1962 (1960-62) [FLAC]\Disc 3of4\17 - Work Song.wav
Peak level 100.0 %
Extraction speed 7.4 X
Track quality 100.0 %
Test CRC 27081946
Copy CRC 27081946
Accurately ripped (confidence 1) [4C6A88A8] (AR v2)
Copy OK
Track 18
Filename C:\Users\owner\Desktop\Quincy Jones - Complete Recordings 1960-1962 (1960-62) [FLAC]\Disc 3of4\18 - Ma (She's Making Eyes At Me).wav
Peak level 100.0 %
Extraction speed 6.8 X
Track quality 100.0 %
Test CRC 0078750B
Copy CRC 0078750B
Accurately ripped (confidence 1) [8FB0E18D] (AR v2)
Copy OK
All tracks accurately ripped
No errors occurred
End of status report
==== Log checksum 13FBF877361ECA0B32FA88C9785BE47C4088EA85727A14308EA15A2A6D354475 ====

Содержание индексной карты (.CUE)

REM GENRE Jazz
REM DATE 2014
REM DISCID EC118312
REM COMMENT "ExactAudioCopy v1.0b3"
PERFORMER "Quincy Jones"
TITLE "The Complete Recordings 1960-1962 (Disc 3)"
FILE "01 - Main Title.wav" WAVE
TRACK 01 AUDIO
TITLE "Main Title"
PERFORMER "Quincy Jones"
INDEX 01 00:00:00
FILE "02 - The Boy in the Tree.wav" WAVE
TRACK 02 AUDIO
TITLE "The Boy in the Tree"
PERFORMER "Quincy Jones"
INDEX 01 00:00:00
FILE "03 - Crucifixion March.wav" WAVE
TRACK 03 AUDIO
TITLE "Crucifixion March"
PERFORMER "Quincy Jones"
INDEX 01 00:00:00
FILE "04 - Fulla' Fira.wav" WAVE
TRACK 04 AUDIO
TITLE "Fulla' Fira"
PERFORMER "Quincy Jones"
INDEX 01 00:00:00
FILE "05 - The Quintessence.wav" WAVE
TRACK 05 AUDIO
TITLE "The Quintessence"
PERFORMER "Quincy Jones"
INDEX 01 00:00:00
FILE "06 - Robot Portrait.wav" WAVE
TRACK 06 AUDIO
TITLE "Robot Portrait"
PERFORMER "Quincy Jones"
INDEX 01 00:00:00
FILE "07 - Little Karen.wav" WAVE
TRACK 07 AUDIO
TITLE "Little Karen"
PERFORMER "Quincy Jones"
INDEX 01 00:00:00
FILE "08 - Straight, No Chaser.wav" WAVE
TRACK 08 AUDIO
TITLE "Straight, No Chaser"
PERFORMER "Quincy Jones"
INDEX 01 00:00:00
FILE "09 - For Lena and Lennie.wav" WAVE
TRACK 09 AUDIO
TITLE "For Lena and Lennie"
PERFORMER "Quincy Jones"
INDEX 01 00:00:00
FILE "10 - Hard Sock Dance.wav" WAVE
TRACK 10 AUDIO
TITLE "Hard Sock Dance"
PERFORMER "Quincy Jones"
INDEX 01 00:00:00
FILE "11 - Invitation.wav" WAVE
TRACK 11 AUDIO
TITLE "Invitation"
PERFORMER "Quincy Jones"
INDEX 01 00:00:00
FILE "12 - The Twitch.wav" WAVE
TRACK 12 AUDIO
TITLE "The Twitch"
PERFORMER "Quincy Jones"
INDEX 01 00:00:00
FILE "13 - Alright, Okay, You Win.wav" WAVE
TRACK 13 AUDIO
TITLE "Alright, Okay, You Win"
PERFORMER "Quincy Jones"
INDEX 01 00:00:00
FILE "14 - I'm Falling For You, Fool That I Am, Everything I Have is For You.wav" WAVE
TRACK 14 AUDIO
TITLE "I'm Falling For You, Fool That I Am, Everything I Have is For You"
PERFORMER "Quincy Jones"
INDEX 01 00:00:00
FILE "15 - In the Still of the Night.wav" WAVE
TRACK 15 AUDIO
TITLE "In the Still of the Night"
PERFORMER "Quincy Jones"
INDEX 01 00:00:00
FILE "16 - Don't Get Around Much Anymore, I'm Just a Lucky So and So, Caravan, Sophisticated Lady.wav" WAVE
TRACK 16 AUDIO
TITLE "Don't Get Around Much Anymore, I'm Just a Lucky So and So, Caravan, Sophistic..."
PERFORMER "Quincy Jones"
INDEX 01 00:00:00
FILE "17 - Work Song.wav" WAVE
TRACK 17 AUDIO
TITLE "Work Song"
PERFORMER "Quincy Jones"
INDEX 01 00:00:00
FILE "18 - Ma (She's Making Eyes At Me).wav" WAVE
TRACK 18 AUDIO
TITLE "Ma (She's Making Eyes At Me)"
PERFORMER "Quincy Jones"
INDEX 01 00:00:00

Disc Four (64:47)

Треклист:
01. Soul Bossa Nova (2:48)
02. Boogie Stop Shuffle (2:45)
03. Desafinado (2:57)
04. Manha De Carnaval (2:58)
05. Se E Tarde Me Pardoa (4:25)
06. On the Street Where You Live (2:36)
07. Samba De Uma Nota So (2:05)
08. Lalo Bossa Nova (3:13)
09. Serenata (3:22)
10. Chega De Saudade (5:34)
11. You're Mine You (4:03)
12. The Best Is Yet To Come (3:03)
13. Witchcraft (2:58)
14. The Second Time Around (3:43)
15. I Could Write a Book (2:24)
16. Maria (3:14)
17. Baubles, Bangles and Beads (3:42)
18. Fly Me to the Moon (2:56)
19. So Long (2:55)
20. On Green Dolphin Street (3:06)
 

Лог создания рипа

Exact Audio Copy V1.0 beta 3 from 29. August 2011
EAC extraction logfile from 9. May 2014, 14:59
Quincy Jones / The Complete Recordings 1960-1962 (Disc 4)
Used drive : ATAPI DVD A DH16ABSH Adapter: 2 ID: 1
Read mode : Secure
Utilize accurate stream : Yes
Defeat audio cache : Yes
Make use of C2 pointers : No
Read offset correction : 6
Overread into Lead-In and Lead-Out : No
Fill up missing offset samples with silence : Yes
Delete leading and trailing silent blocks : No
Null samples used in CRC calculations : Yes
Used interface : Native Win32 interface for Win NT & 2000
Gap handling : Appended to previous track
Used output format : User Defined Encoder
Selected bitrate : 128 kBit/s
Quality : High
Add ID3 tag : No
Command line compressor : C:\Program Files (x86)\Exact Audio Copy\FLAC\FLAC.EXE
Additional command line options : -8 -V -T "ARTIST=%artist%" -T "TITLE=%title%" -T "ALBUM=%albumtitle%" -T "DATE=%year%" -T "TRACKNUMBER=%tracknr%" -T "TOTALTRACKS=%numtracks%" -T "GENRE=%genre%" -T "ALBUMARTIST=%albumartist%" -T "ALBUM ARTIST=%albumartist%" -T "COMMENT=EAC Secure Mode, Test & Copy, AccurateRip, FLAC -8" %source%
TOC of the extracted CD
Track | Start | Length | Start sector | End sector
---------------------------------------------------------
1 | 0:00.00 | 2:48.17 | 0 | 12616
2 | 2:48.17 | 2:44.55 | 12617 | 24971
3 | 5:32.72 | 2:57.02 | 24972 | 38248
4 | 8:29.74 | 2:57.69 | 38249 | 51592
5 | 11:27.68 | 4:25.09 | 51593 | 71476
6 | 15:53.02 | 2:36.26 | 71477 | 83202
7 | 18:29.28 | 2:04.51 | 83203 | 92553
8 | 20:34.04 | 3:13.07 | 92554 | 107035
9 | 23:47.11 | 3:21.64 | 107036 | 122174
10 | 27:09.00 | 5:33.63 | 122175 | 147212
11 | 32:42.63 | 4:03.03 | 147213 | 165440
12 | 36:45.66 | 3:02.57 | 165441 | 179147
13 | 39:48.48 | 2:58.07 | 179148 | 192504
14 | 42:46.55 | 3:42.72 | 192505 | 209226
15 | 46:29.52 | 2:24.01 | 209227 | 220027
16 | 48:53.53 | 3:13.54 | 220028 | 234556
17 | 52:07.32 | 3:41.47 | 234557 | 251178
18 | 55:49.04 | 2:56.26 | 251179 | 264404
19 | 58:45.30 | 2:55.21 | 264405 | 277550
20 | 61:40.51 | 3:05.74 | 277551 | 291499
Track 1
Filename C:\Users\owner\Desktop\Quincy Jones - Complete Recordings 1960-1962 (1960-62) [FLAC]\Disc 4of4\01 - Soul Bossa Nova.wav
Pre-gap length 0:00:02.00
Peak level 100.0 %
Extraction speed 3.0 X
Track quality 100.0 %
Test CRC F03A0CE6
Copy CRC F03A0CE6
Cannot be verified as accurate (confidence 1) [0E88251C], AccurateRip returned [AD5AB8DE] (AR v2)
Copy OK
Track 2
Filename C:\Users\owner\Desktop\Quincy Jones - Complete Recordings 1960-1962 (1960-62) [FLAC]\Disc 4of4\02 - Boogie Stop Shuffle.wav
Peak level 100.0 %
Extraction speed 3.4 X
Track quality 100.0 %
Test CRC 61B9DE44
Copy CRC 61B9DE44
Cannot be verified as accurate (confidence 1) [9B93DA95], AccurateRip returned [102CF7D4] (AR v2)
Copy OK
Track 3
Filename C:\Users\owner\Desktop\Quincy Jones - Complete Recordings 1960-1962 (1960-62) [FLAC]\Disc 4of4\03 - Desafinado.wav
Peak level 100.0 %
Extraction speed 3.7 X
Track quality 100.0 %
Test CRC A49037FE
Copy CRC A49037FE
Cannot be verified as accurate (confidence 1) [DB4D369F], AccurateRip returned [6E8D1299] (AR v2)
Copy OK
Track 4
Filename C:\Users\owner\Desktop\Quincy Jones - Complete Recordings 1960-1962 (1960-62) [FLAC]\Disc 4of4\04 - Manha De Carnaval.wav
Peak level 100.0 %
Extraction speed 3.0 X
Track quality 99.9 %
Test CRC A2732F5E
Copy CRC A2732F5E
Cannot be verified as accurate (confidence 1) [0AB0BA93], AccurateRip returned [24CB1FB1] (AR v2)
Copy OK
Track 5
Filename C:\Users\owner\Desktop\Quincy Jones - Complete Recordings 1960-1962 (1960-62) [FLAC]\Disc 4of4\05 - Se E Tarde Me Pardoa.wav
Peak level 100.0 %
Extraction speed 4.5 X
Track quality 100.0 %
Test CRC F9EB1312
Copy CRC F9EB1312
Cannot be verified as accurate (confidence 1) [97F3DC97], AccurateRip returned [4F77A5C4] (AR v2)
Copy OK
Track 6
Filename C:\Users\owner\Desktop\Quincy Jones - Complete Recordings 1960-1962 (1960-62) [FLAC]\Disc 4of4\06 - On the Street Where You Live.wav
Peak level 100.0 %
Extraction speed 3.2 X
Track quality 99.9 %
Test CRC CB05E96E
Copy CRC CB05E96E
Cannot be verified as accurate (confidence 1) [804FFC9C], AccurateRip returned [F9D7DD66] (AR v2)
Copy OK
Track 7
Filename C:\Users\owner\Desktop\Quincy Jones - Complete Recordings 1960-1962 (1960-62) [FLAC]\Disc 4of4\07 - Samba De Uma Nota So.wav
Peak level 98.2 %
Extraction speed 4.2 X
Track quality 100.0 %
Test CRC C6AFD44F
Copy CRC C6AFD44F
Cannot be verified as accurate (confidence 1) [C6650AA1], AccurateRip returned [DC581E0F] (AR v2)
Copy OK
Track 8
Filename C:\Users\owner\Desktop\Quincy Jones - Complete Recordings 1960-1962 (1960-62) [FLAC]\Disc 4of4\08 - Lalo Bossa Nova.wav
Peak level 100.0 %
Extraction speed 4.8 X
Track quality 100.0 %
Test CRC 6384FF5F
Copy CRC 6384FF5F
Cannot be verified as accurate (confidence 1) [5E2E0291], AccurateRip returned [2762F7B5] (AR v2)
Copy OK
Track 9
Filename C:\Users\owner\Desktop\Quincy Jones - Complete Recordings 1960-1962 (1960-62) [FLAC]\Disc 4of4\09 - Serenata.wav
Peak level 100.0 %
Extraction speed 3.9 X
Track quality 99.9 %
Test CRC 1F8CC856
Copy CRC 1F8CC856
Cannot be verified as accurate (confidence 1) [1C540F0A], AccurateRip returned [4E9F8194] (AR v2)
Copy OK
Track 10
Filename C:\Users\owner\Desktop\Quincy Jones - Complete Recordings 1960-1962 (1960-62) [FLAC]\Disc 4of4\10 - Chega De Saudade.wav
Peak level 100.0 %
Extraction speed 5.6 X
Track quality 100.0 %
Test CRC 23004011
Copy CRC 23004011
Cannot be verified as accurate (confidence 1) [00038613], AccurateRip returned [309FE5BD] (AR v2)
Copy OK
Track 11
Filename C:\Users\owner\Desktop\Quincy Jones - Complete Recordings 1960-1962 (1960-62) [FLAC]\Disc 4of4\11 - You're Mine You.wav
Peak level 100.0 %
Extraction speed 4.6 X
Track quality 99.9 %
Test CRC A582DB8F
Copy CRC A582DB8F
Cannot be verified as accurate (confidence 1) [6ECCF8FA], AccurateRip returned [438F8609] (AR v2)
Copy OK
Track 12
Filename C:\Users\owner\Desktop\Quincy Jones - Complete Recordings 1960-1962 (1960-62) [FLAC]\Disc 4of4\12 - The Best Is Yet To Come.wav
Peak level 100.0 %
Extraction speed 5.6 X
Track quality 100.0 %
Test CRC 7498EFC4
Copy CRC 7498EFC4
Cannot be verified as accurate (confidence 1) [06A4EDAB], AccurateRip returned [8DA485B5] (AR v2)
Copy OK
Track 13
Filename C:\Users\owner\Desktop\Quincy Jones - Complete Recordings 1960-1962 (1960-62) [FLAC]\Disc 4of4\13 - Witchcraft.wav
Peak level 100.0 %
Extraction speed 5.8 X
Track quality 100.0 %
Test CRC C91F8C1A
Copy CRC C91F8C1A
Cannot be verified as accurate (confidence 1) [E0FF7A53], AccurateRip returned [31178849] (AR v2)
Copy OK
Track 14
Filename C:\Users\owner\Desktop\Quincy Jones - Complete Recordings 1960-1962 (1960-62) [FLAC]\Disc 4of4\14 - The Second Time Around.wav
Peak level 100.0 %
Extraction speed 6.1 X
Track quality 100.0 %
Test CRC 8130FD65
Copy CRC 8130FD65
Cannot be verified as accurate (confidence 1) [D8F2906E], AccurateRip returned [34A29F27] (AR v2)
Copy OK
Track 15
Filename C:\Users\owner\Desktop\Quincy Jones - Complete Recordings 1960-1962 (1960-62) [FLAC]\Disc 4of4\15 - I Could Write a Book.wav
Peak level 100.0 %
Extraction speed 5.8 X
Track quality 100.0 %
Test CRC E4B3CC99
Copy CRC E4B3CC99
Cannot be verified as accurate (confidence 1) [5FE86AB5], AccurateRip returned [2AFA9D4F] (AR v2)
Copy OK
Track 16
Filename C:\Users\owner\Desktop\Quincy Jones - Complete Recordings 1960-1962 (1960-62) [FLAC]\Disc 4of4\16 - Maria.wav
Peak level 100.0 %
Extraction speed 6.2 X
Track quality 100.0 %
Test CRC 3AAFDFAF
Copy CRC 3AAFDFAF
Cannot be verified as accurate (confidence 1) [B301DBCB], AccurateRip returned [39C39109] (AR v2)
Copy OK
Track 17
Filename C:\Users\owner\Desktop\Quincy Jones - Complete Recordings 1960-1962 (1960-62) [FLAC]\Disc 4of4\17 - Baubles, Bangles and Beads.wav
Peak level 100.0 %
Extraction speed 6.5 X
Track quality 100.0 %
Test CRC DA27FCAF
Copy CRC DA27FCAF
Cannot be verified as accurate (confidence 1) [E0B6762A], AccurateRip returned [612381DA] (AR v2)
Copy OK
Track 18
Filename C:\Users\owner\Desktop\Quincy Jones - Complete Recordings 1960-1962 (1960-62) [FLAC]\Disc 4of4\18 - Fly Me to the Moon.wav
Peak level 100.0 %
Extraction speed 6.4 X
Track quality 100.0 %
Test CRC EE6E1038
Copy CRC EE6E1038
Cannot be verified as accurate (confidence 1) [E68F7757], AccurateRip returned [B6219A74] (AR v2)
Copy OK
Track 19
Filename C:\Users\owner\Desktop\Quincy Jones - Complete Recordings 1960-1962 (1960-62) [FLAC]\Disc 4of4\19 - So Long.wav
Peak level 100.0 %
Extraction speed 4.9 X
Track quality 99.9 %
Test CRC C3F6B742
Copy CRC C3F6B742
Cannot be verified as accurate (confidence 1) [DCE633E4], AccurateRip returned [8817E7D5] (AR v2)
Copy OK
Track 20
Filename C:\Users\owner\Desktop\Quincy Jones - Complete Recordings 1960-1962 (1960-62) [FLAC]\Disc 4of4\20 - On Green Dolphin Street.wav
Peak level 100.0 %
Extraction speed 6.9 X
Track quality 100.0 %
Test CRC B5AA7489
Copy CRC B5AA7489
Cannot be verified as accurate (confidence 1) [4223343A], AccurateRip returned [E8814F70] (AR v2)
Copy OK
No tracks could be verified as accurate
You may have a different pressing from the one(s) in the database
No errors occurred
End of status report
==== Log checksum D3BD5C68F05102FC383C09AC9A1CE86174C2E2F2697D821315082D19DD70264D ====

Содержание индексной карты (.CUE)

REM GENRE Jazz
REM DATE 2014
REM DISCID 110F2E14
REM COMMENT "ExactAudioCopy v1.0b3"
PERFORMER "Quincy Jones"
TITLE "The Complete Recordings 1960-1962 (Disc 4)"
FILE "01 - Soul Bossa Nova.wav" WAVE
TRACK 01 AUDIO
TITLE "Soul Bossa Nova"
PERFORMER "Quincy Jones"
INDEX 01 00:00:00
FILE "02 - Boogie Stop Shuffle.wav" WAVE
TRACK 02 AUDIO
TITLE "Boogie Stop Shuffle"
PERFORMER "Quincy Jones"
INDEX 01 00:00:00
FILE "03 - Desafinado.wav" WAVE
TRACK 03 AUDIO
TITLE "Desafinado"
PERFORMER "Quincy Jones"
INDEX 01 00:00:00
FILE "04 - Manha De Carnaval.wav" WAVE
TRACK 04 AUDIO
TITLE "Manha De Carnaval"
PERFORMER "Quincy Jones"
INDEX 01 00:00:00
FILE "05 - Se E Tarde Me Pardoa.wav" WAVE
TRACK 05 AUDIO
TITLE "Se E Tarde Me Pardoa"
PERFORMER "Quincy Jones"
INDEX 01 00:00:00
FILE "06 - On the Street Where You Live.wav" WAVE
TRACK 06 AUDIO
TITLE "On the Street Where You Live"
PERFORMER "Quincy Jones"
INDEX 01 00:00:00
FILE "07 - Samba De Uma Nota So.wav" WAVE
TRACK 07 AUDIO
TITLE "Samba De Uma Nota So"
PERFORMER "Quincy Jones"
INDEX 01 00:00:00
FILE "08 - Lalo Bossa Nova.wav" WAVE
TRACK 08 AUDIO
TITLE "Lalo Bossa Nova"
PERFORMER "Quincy Jones"
INDEX 01 00:00:00
FILE "09 - Serenata.wav" WAVE
TRACK 09 AUDIO
TITLE "Serenata"
PERFORMER "Quincy Jones"
INDEX 01 00:00:00
FILE "10 - Chega De Saudade.wav" WAVE
TRACK 10 AUDIO
TITLE "Chega De Saudade"
PERFORMER "Quincy Jones"
INDEX 01 00:00:00
FILE "11 - You're Mine You.wav" WAVE
TRACK 11 AUDIO
TITLE "You're Mine You"
PERFORMER "Quincy Jones"
INDEX 01 00:00:00
FILE "12 - The Best Is Yet To Come.wav" WAVE
TRACK 12 AUDIO
TITLE "The Best Is Yet To Come"
PERFORMER "Quincy Jones"
INDEX 01 00:00:00
FILE "13 - Witchcraft.wav" WAVE
TRACK 13 AUDIO
TITLE "Witchcraft"
PERFORMER "Quincy Jones"
INDEX 01 00:00:00
FILE "14 - The Second Time Around.wav" WAVE
TRACK 14 AUDIO
TITLE "The Second Time Around"
PERFORMER "Quincy Jones"
INDEX 01 00:00:00
FILE "15 - I Could Write a Book.wav" WAVE
TRACK 15 AUDIO
TITLE "I Could Write a Book"
PERFORMER "Quincy Jones"
INDEX 01 00:00:00
FILE "16 - Maria.wav" WAVE
TRACK 16 AUDIO
TITLE "Maria"
PERFORMER "Quincy Jones"
INDEX 01 00:00:00
FILE "17 - Baubles, Bangles and Beads.wav" WAVE
TRACK 17 AUDIO
TITLE "Baubles, Bangles and Beads"
PERFORMER "Quincy Jones"
INDEX 01 00:00:00
FILE "18 - Fly Me to the Moon.wav" WAVE
TRACK 18 AUDIO
TITLE "Fly Me to the Moon"
PERFORMER "Quincy Jones"
INDEX 01 00:00:00
FILE "19 - So Long.wav" WAVE
TRACK 19 AUDIO
TITLE "So Long"
PERFORMER "Quincy Jones"
INDEX 01 00:00:00
FILE "20 - On Green Dolphin Street.wav" WAVE
TRACK 20 AUDIO
TITLE "On Green Dolphin Street"
PERFORMER "Quincy Jones"
INDEX 01 00:00:00
 

Доп. информация

DISC 1: Tracks 1-10 "I Dig Doncers" originally Mercury LP 60612. Tracks 11-21 "Around The World" originally Mercury LP 6014.
DISC 2: Tracks 1-8 "Live At Newport 1961" originally Mercury LP 60653. Tracks 9-14 "The Great Wide World of Quincy Jones: Live!" originally Mercury LP 195J-32.
DISC 3: Tracks 1-4 "The Boy In The Tree (OST)" originally Mercury LP 60338. Tracks 5-12 "The Quintessence" originally Impulse! LP AS-11. Tracks 13-18 "At Basin St. East" with Billy Eckstine originally Mercury LP 60674
DISC 4: Tracks 1-10 "Big Band Bossa Nova" originally Mercury LP 60751. Tracks 11-20 "You're Mine You" with Sarah Vaughan originally Roulette LP 52082.

Review by Amazon

Quincy Jones - The Complete Recordings: 1960 - 1962 includes all 9 albums released during this period. It was during the 1960s that Quincy Jones became a world renowned Jazz musician and composer of film soundtracks, but it was not until about the middle of the decade that success of this nature began to come his way, soon after he had composed the score for Oscar nominated The Pawnbroker. Indeed, during the first few years of the 1960s he lived as a working musician, bandleader and the musical director of Barclay Records - the French imprint of Mercury - but could barely earn enough to pay the bills. This however, did not prevent Quincy from continuing to perform and release music of a quite superlative nature. While still in Paris, Quincy, along with his Jones Boys, recorded his first album of the 1960s, the upbeat I Dig Dancers. Released in 1961, his follow up, titled Around the World , was cut back in New York (to where he had returned in October 1960) and featured Quincy's arrangements of songs and tunes from - just as it said on the tin - around the world. Over the next two years Jones continued releasing music at a prolific rate whilst drawing from influences far and wide, and by the end of 1962 his profile had risen considerably as he begun to be noticed in circles outside of the Jazz community. This 4CD collection brings together the nine albums Quincy Jones made during 1960 1962, providing a comprehensive overview of a musician on the cusp of greatness.

AllMusic Review by Thom Jurek

Box sets like this reflect what is almost incomprehensible in the 21st century: that headline musicians could be, if they wised as recording artists. They could cut and albums have multiple albums released in a year on well known labels, and distributed to the masses. This four disc box that covers three years in Quincy Jones' long career contains a total of nine albums. Seven of these titles are listed under his own name I Dig Dancers, Around The World, QJ at Newport, The Great Wide World Of Quincy Jones, the classic Quintessence (one of two offerings not on Mercury here; it was released on Impluse!), and Bossa Nova. Another is the collaborative album Basin Street, recorded with Billy Eckstine. Also included is the hard to find original score for for Arne Sucksdorff's film, Pojken i trädet (trans: the Boy In The Tree), and lastly, Sarah Vaughan's You're Mine You which he arranged and conducted (it was issued by Roulette). These discs contain nearly five hours of music 285 minutes to be exact and reflect a hell of a quality run in Jones' catalogue. While the Enlightenment label is not exactly renowned for is quality reissues, the price is right and the sound mono is more than acceptable.

To download the file disable ad blocking, and reload the page.

disable adblock How to disable ad blocking?

Download by magnet link 1.66 GB Download Torrent

Login using:

Загрузка...

Similar topics



   
Current time is: 19-Dec 18:20 :: All times are UTC + 3