Waylander - Honour Amongst Chaos
Жанр: Celtic Folk Metal
Год выпуска диска: 2008
Производитель диска: Ирландия
Аудио кодек: FLAC
Тип рипа: image+.cue
Битрейт аудио: lossless
Продолжительность: 01:06:09
Трэклист:
01. [07:45] As The Deities Clash
02. [05:00] Walk With Honour
03. [07:56] Beyond The Ninth Wave
04. [06:17] Galloping Gaels
05. [10:16] To Dine In The Otherworld
06. [08:24] Usurpers Of Our Legacy
07. [06:02] Taker Of Heads
08. [08:44] Elemental Chaos
09. [05:42] Bru Na Boinne
Доп. информация:
Состав:
Ciaran O'Hagan – вокал
Saul McMichael – гитара
Gareth "Gaz" Murdock – гитара
Michael Proctor – бас
Den Ferran – ударные
Dave Briggs – волынка, мандолина, бодран

EAC

Exact Audio Copy V0.99 prebeta 4 from 23. January 2008
EAC extraction logfile from 17. May 2009, 23:41
Waylander / Honour Amongst Chaos
Used drive : TOSHIBA DVD-ROM SD-M1612 Adapter: 0 ID: 1
Read mode : Secure
Utilize accurate stream : Yes
Defeat audio cache : Yes
Make use of C2 pointers : No
Read offset correction : -472
Overread into Lead-In and Lead-Out : No
Fill up missing offset samples with silence : Yes
Delete leading and trailing silent blocks : No
Null samples used in CRC calculations : No
Used interface : Native Win32 interface for Win NT & 2000
Used output format : User Defined Encoder
Selected bitrate : 32 kBit/s
Quality : High
Add ID3 tag : No
Command line compressor : C:\Program Files\Exact Audio Copy\FLAC.EXE
Additional command line options : -6 -V %s
TOC of the extracted CD
Track | Start | Length | Start sector | End sector
---------------------------------------------------------
1 | 0:00.00 | 7:45.00 | 0 | 34874
2 | 7:45.00 | 5:00.19 | 34875 | 57393
3 | 12:45.19 | 7:56.65 | 57394 | 93158
4 | 20:42.09 | 6:17.60 | 93159 | 121493
5 | 26:59.69 | 10:16.02 | 121494 | 167695
6 | 37:15.71 | 8:24.01 | 167696 | 205496
7 | 45:39.72 | 6:02.55 | 205497 | 232701
8 | 51:42.52 | 8:44.46 | 232702 | 272047
9 | 60:27.23 | 5:42.08 | 272048 | 297705
Range status and errors
Selected range
Filename C:\Lossless rips by twistedsam\Waylander - Honour Amongst Chaos (2008)\Waylander - Honour Amongst Chaos.wav
Peak level 99.9 %
Range quality 100.0 %
Copy CRC 87D22274
Copy OK
No errors occurred
AccurateRip summary
Track 1 accurately ripped (confidence 1) [003FED3B]
Track 2 accurately ripped (confidence 1) [BFF9DBD6]
Track 3 accurately ripped (confidence 1) [788A79CE]
Track 4 accurately ripped (confidence 1) [8B56BC00]
Track 5 accurately ripped (confidence 1) [99987CDA]
Track 6 accurately ripped (confidence 1) [5F0B55BB]
Track 7 accurately ripped (confidence 1) [ED47C9E7]
Track 8 accurately ripped (confidence 1) [2CD2C685]
Track 9 accurately ripped (confidence 1) [4CDF5861]
All tracks accurately ripped
End of status report
Данный альбом в формате MP3 320 kbps можно взять здесь

To download the file disable ad blocking, and reload the page.

disable adblock How to disable ad blocking?

Download by magnet link 495 MB Download Torrent

Login using:

Similar topics



   
Current time is: 18-Oct 04:55 :: All times are UTC ± 0