Irminsul - Irminsul
Жанр: Pagan Folk Metal
Год выпуска диска: 2009
Производитель диска: Швеция
Аудио кодек: FLAC
Тип рипа: image+.cue
Битрейт аудио: lossless
Продолжительность: 40:31
Трэклист:
01. [01:28] Gryning
02. [04:02] Urberg
03. [04:18] Vinterskald
04. [05:51] Midvinterblot
05. [05:22] Frostfödd
06. [04:20] Vidrigslätt
07. [04:30] Vakaren
08. [03:52] Häxhammaren
09. [06:45] Svikaren
Доп. информация:

Состав

Robin Lövenhamn - Vocals, Guitar
Jonas Persson - Drums
Patric 'Guzten' Gustafsson - Bass
Giulio 'Julle' Laurenzi - Guitar
Studio Members:
Ida Gudmundson - Violins
Linda Fagerberg - Female vocals

Отчёт EAC

Exact Audio Copy V0.99 prebeta 3 from 28. July 2007
Отчёт EAC об извлечении, выполненном 6. июня 2009, 19:04
Irminsul / Irminsul
Дисковод: SONY DVD RW DW-Q120A Adapter: 0 ID: 3
Режим чтения : Достоверность
Использование точного потока : Да
Отключение кэша аудио : Да
Использование указателей C2 : Нет
Коррекция смещения при чтении : 6
Способность читать области Lead-in и Lead-out : Нет
Заполнение пропущенных сэмплов тишиной : Да
Удаление блоков с тишиной в начале и конце : Нет
При вычислениях CRC использовались нулевые сэмплы : Да
Интерфейс : Установленный внешний ASPI-интерфейс
Выходной формат : Внутренние WAV-операции
Формат сэмплов : 44.100 Гц; 16 бит; стерео
TOC извлечённого CD
Трек | Старт | Длительность | Начальный сектор | Конечный сектор
---------------------------------------------------------------------
1 | 0:00.00 | 1:28.38 | 0 | 6637
2 | 1:28.38 | 4:02.46 | 6638 | 24833
3 | 5:31.09 | 4:17.71 | 24834 | 44179
4 | 9:49.05 | 5:51.48 | 44180 | 70552
5 | 15:40.53 | 5:22.12 | 70553 | 94714
6 | 21:02.65 | 4:19.74 | 94715 | 114213
7 | 25:22.64 | 4:30.53 | 114214 | 134516
8 | 29:53.42 | 3:52.40 | 134517 | 151956
9 | 33:46.07 | 6:45.21 | 151957 | 182352
Характеристики диапазона извлечения и сообщения об ошибках
Выбранный диапазон
Имя файла I:\Convert\Irminsul - Irminsul.wav
Пиковый уровень 99.4 %
Качество диапазона 100.0 %
CRC копии A30B4EF3
Копирование... OK
Ошибок не произошло
Конец отчёта

Для скачивания файла отключите блокировку рекламы и перезагрузите страницу.

disable adblock Как отключить блокировку рекламы?

Скачать по магнет ссылке 300 MB 

Войти с помощью:

Загрузка...
Загрузка...


   
Текущее время: 21-Июн 10:33 :: Часовой пояс: UTC ± 0