Keltenherz - Der Konig der Bettler
Жанр: Folk/Gothic
Год выпуска диска: 2005
Производитель диска: Germany
Аудио кодек: FLAC
Тип рипа: image+.cue
Битрейт аудио: lossless
Продолжительность: 54:11
Трэклист:
1 - Konig der Bettler 03:30
2 - 1000 gute Grunde 05:14
3 - Schlange im Blut 03:53
4 - Greenland ( Bagpipe Version ) 04:13
5 - Beggarman's love song ( Radio edit ) 05:08
6 - Angels 04:15
7 - Like a banshee 04:49
8 - Temple of pain 05:27
9 - Tranen 09:08
10 - Alive 04:53
11 - Schlange im Blut ( Serpent Remix ) 03:40
Доп. информация: Рип с оригинального диска подаренного авторами.
http://www.keltenherz.de
http://www.finnegan-und-der-kobold.de
Covers прилагаются. Приятного Вам прослушивания! Спасибо за спасибо!

Отчёт EAC

Exact Audio Copy V0.99 prebeta 5 from 4. May 2009
Отчёт EAC об извлечении, выполненном 24. октября 2009, 17:26
Keltenherz / Der Konig Der Bettler
Дисковод: Optiarc DVD+-RW AD-7640A Adapter: 1 ID: 0
Режим чтения : Достоверность
Использование точного потока : Да
Отключение кэша аудио : Да
Использование указателей C2 : Нет
Коррекция смещения при чтении : 6
Способность читать области Lead-in и Lead-out : Нет
Заполнение пропущенных сэмплов тишиной : Да
Удаление блоков с тишиной в начале и конце : Нет
При вычислениях CRC использовались нулевые сэмплы : Да
Интерфейс : Установленный внешний ASPI-интерфейс
Выходной формат : Пользовательский кодировщик
Выбранный битрейт : 768 kBit/s
Качество : Высокий
Добавление ID3-тэга : Нет
Утилита сжатия : C:\Program Files\Exact Audio Copy\FLAC\FLAC.EXE
Дополнительные параметры : -6 -V -T "ARTIST=%a" -T "TITLE=%t" -T "ALBUM=%g" -T "DATE=%y" -T "TRACKNUMBER=%n" -T "GENRE=%m" -T "COMMENT=%e" %s -o %d
TOC извлечённого CD
Трек | Старт | Длительность | Начальный сектор | Конечный сектор
---------------------------------------------------------------------
1 | 0:00.00 | 3:29.68 | 0 | 15742
2 | 3:29.68 | 5:14.27 | 15743 | 39319
3 | 8:44.20 | 3:53.14 | 39320 | 56808
4 | 12:37.34 | 4:13.17 | 56809 | 75800
5 | 16:50.51 | 5:07.43 | 75801 | 98868
6 | 21:58.19 | 4:15.46 | 98869 | 118039
7 | 26:13.65 | 4:49.23 | 118040 | 139737
8 | 31:03.13 | 5:27.15 | 139738 | 164277
9 | 36:30.28 | 9:08.06 | 164278 | 205383
10 | 45:38.34 | 4:52.39 | 205384 | 227322
11 | 50:30.73 | 3:39.54 | 227323 | 243801
Характеристики диапазона извлечения и сообщения об ошибках
Выбранный диапазон
Имя файла C:\Users\Real_Racot\Keltenherz - Der Konig Der Bettler.wav
Пиковый уровень 98.8 %
Качество диапазона 100.0 %
CRC копии 24ED231B
Копирование... OK
Ошибок не произошло
AccurateRip: сводка
Трек 1 нет в базе данных
Трек 2 нет в базе данных
Трек 3 нет в базе данных
Трек 4 нет в базе данных
Трек 5 нет в базе данных
Трек 6 нет в базе данных
Трек 7 нет в базе данных
Трек 8 нет в базе данных
Трек 9 нет в базе данных
Трек 10 нет в базе данных
Трек 11 нет в базе данных
Ни одного трека нет в базе AccurateRip
Конец отчёта
Другой альбом этой же команды под иным названием группы Garden of Delight (G.O.D / G.O.d.): http://********.org/forum/viewtopic.php?t=2349476

Для скачивания файла отключите блокировку рекламы и перезагрузите страницу.

disable adblock Как отключить блокировку рекламы?

Скачать по магнет ссылке 404 MB 

Войти с помощью:

Похожие раздачи

Внимание! Контент 18+ если вы младше данного возраста, НЕ переходите по ссылке!!!


   
Текущее время: 15-Авг 12:51 :: Часовой пояс: UTC ± 0