Hammer Horde - Under The Mighty Oath- Жанр: Epic Viking / Folk / Melodic Death Metal
Год выпуска диска: 2009
Производитель диска: США
Аудио кодек: FLAC
Тип рипа: tracks+.cue
Битрейт аудио: lossless
Продолжительность: 1:00:27
Источник: What.CD

Трэклист:
01. Storm of Pagan Skies (1:07)
02. Pierced by Odin´s Spear (7:03)
03. Under the Mighty Oath (4:44)
04. In the Name of Winter´s Wrath (7:20)
05. Howl of Himinbjorg (6:51)
06. Farewell to the Fallen (4:11)
07. Triumph of Sword and Shield (6:09)
08. Through celestial Seascapes (7:47)
09. Of Legends and Lore (6:18)
10. Seafarer (8:58)

Лог EAC

Exact Audio Copy V0.99 prebeta 5 from 4. May 2009
EAC extraction logfile from 19. December 2009, 21:05
Hammer Horde / Under the Mighty Oath
Used drive : MATSHITADVD-RAM UJ-850 Adapter: 1 ID: 0
Read mode : Secure
Utilize accurate stream : Yes
Defeat audio cache : Yes
Make use of C2 pointers : No
Read offset correction : 102
Overread into Lead-In and Lead-Out : No
Fill up missing offset samples with silence : Yes
Delete leading and trailing silent blocks : No
Null samples used in CRC calculations : Yes
Used interface : Native Win32 interface for Win NT & 2000
Gap handling : Appended to previous track
Used output format : Internal WAV Routines
Sample format : 44.100 Hz; 16 Bit; Stereo
TOC of the extracted CD
Track | Start | Length | Start sector | End sector
---------------------------------------------------------
1 | 0:00.00 | 1:07.05 | 0 | 5029
2 | 1:07.05 | 7:02.74 | 5030 | 36753
3 | 8:10.04 | 4:43.55 | 36754 | 58033
4 | 12:53.59 | 7:19.49 | 58034 | 91007
5 | 20:13.33 | 6:50.72 | 91008 | 121829
6 | 27:04.30 | 4:10.45 | 121830 | 140624
7 | 31:15.00 | 6:09.35 | 140625 | 168334
8 | 37:24.35 | 7:47.12 | 168335 | 203371
9 | 45:11.47 | 6:18.08 | 203372 | 231729
10 | 51:29.55 | 8:57.55 | 231730 | 272059
Track 1
Filename C:\Users\ryan pape\Desktop\eac\Hammer Horde - Under the Mighty Oath - 01 - Storm of Pagan Skies.wav
Pre-gap length 0:00:02.00
Peak level 70.7 %
Track quality 99.8 %
Test CRC F2035F7C
Copy CRC F2035F7C
Accurately ripped (confidence 1) [816496F8]
Copy OK
Track 2
Filename C:\Users\ryan pape\Desktop\eac\Hammer Horde - Under the Mighty Oath - 02 - Pierced by Odinґs Spear.wav
Pre-gap length 0:00:00.01
Peak level 100.0 %
Track quality 100.0 %
Test CRC 530FE5E2
Copy CRC 530FE5E2
Accurately ripped (confidence 1) [9C176F0C]
Copy OK
Track 3
Filename C:\Users\ryan pape\Desktop\eac\Hammer Horde - Under the Mighty Oath - 03 - Under the Mighty Oath.wav
Peak level 100.0 %
Track quality 100.0 %
Test CRC 8D8126AE
Copy CRC 8D8126AE
Accurately ripped (confidence 1) [8DF4E6B3]
Copy OK
Track 4
Filename C:\Users\ryan pape\Desktop\eac\Hammer Horde - Under the Mighty Oath - 04 - In the Name of Winterґs Wrath.wav
Pre-gap length 0:00:01.44
Peak level 99.9 %
Track quality 99.9 %
Test CRC 3D28BCB5
Copy CRC 3D28BCB5
Accurately ripped (confidence 1) [A01D0F13]
Copy OK
Track 5
Filename C:\Users\ryan pape\Desktop\eac\Hammer Horde - Under the Mighty Oath - 05 - Howl of Himinbjorg.wav
Peak level 100.0 %
Track quality 100.0 %
Test CRC CF05C4A8
Copy CRC CF05C4A8
Accurately ripped (confidence 1) [A1DC7FC9]
Copy OK
Track 6
Filename C:\Users\ryan pape\Desktop\eac\Hammer Horde - Under the Mighty Oath - 06 - Farewell to the Fallen.wav
Pre-gap length 0:00:01.18
Peak level 100.0 %
Track quality 100.0 %
Test CRC 8B1FA809
Copy CRC 8B1FA809
Accurately ripped (confidence 1) [EA3A93EE]
Copy OK
Track 7
Filename C:\Users\ryan pape\Desktop\eac\Hammer Horde - Under the Mighty Oath - 07 - Triumph of Sword and Shield.wav
Pre-gap length 0:00:01.16
Peak level 99.9 %
Track quality 100.0 %
Test CRC 5EC6D14F
Copy CRC 5EC6D14F
Accurately ripped (confidence 1) [B30386FD]
Copy OK
Track 8
Filename C:\Users\ryan pape\Desktop\eac\Hammer Horde - Under the Mighty Oath - 08 - Through celestial Seascapes.wav
Pre-gap length 0:00:02.20
Peak level 99.9 %
Track quality 100.0 %
Test CRC A9F49D92
Copy CRC A9F49D92
Accurately ripped (confidence 1) [1CC4FC72]
Copy OK
Track 9
Filename C:\Users\ryan pape\Desktop\eac\Hammer Horde - Under the Mighty Oath - 09 - Of Legends and Lore.wav
Pre-gap length 0:00:00.01
Peak level 99.9 %
Track quality 100.0 %
Test CRC 98DABAF4
Copy CRC 98DABAF4
Accurately ripped (confidence 1) [F6869D3C]
Copy OK
Track 10
Filename C:\Users\ryan pape\Desktop\eac\Hammer Horde - Under the Mighty Oath - 10 - Seafarer.wav
Pre-gap length 0:00:00.01
Peak level 100.0 %
Track quality 100.0 %
Test CRC F8B0C320
Copy CRC F8B0C320
Accurately ripped (confidence 1) [E10E0205]
Copy OK
All tracks accurately ripped
No errors occurred
End of status report
- -

To download the file disable ad blocking, and reload the page.

disable adblock How to disable ad blocking?

Download by magnet link 447 MB Download Torrent

Login using:

Similar topics



   
Current time is: 23-Oct 03:08 :: All times are UTC ± 0