Helfahrt - Wiedergang
Страна: Germany
Жанр: Pagan Black Metal
Lyrical themes: Nordic/Pagan Mythology, Runes, Nature, Wilderness
Год выпуска диска: 2008
Производитель диска: Trollzorn
Аудио кодек: WAVPack
Тип рипа: image+.cue
Битрейт аудио: lossless
Продолжительность: 00:49:02
Трэклист:
01. Halja 01:30
02. Nu Distel Nu Dorn 06:16
03. Irrlicht 05:33
04. Altsommer 01:36
05. Die Erde birgt den Tod 04:35
06. Wiedergänger 06:20
07. Perchta 06:19
08. Auf Nagelfars Deck 04:47
09. Herbst 09:23
10. Winter 02:40
Источник: ММТ by Gamaun

EAC log

Exact Audio Copy V0.99 prebeta 5 from 4. May 2009
EAC extraction logfile from 30. December 2009, 15:46
Helfahrt / Wiedergang
Used drive : ASUS DRW-2014L1T Adapter: 3 ID: 1
Read mode : Secure
Utilize accurate stream : Yes
Defeat audio cache : Yes
Make use of C2 pointers : No
Read offset correction : 6
Overread into Lead-In and Lead-Out : No
Fill up missing offset samples with silence : Yes
Delete leading and trailing silent blocks : No
Null samples used in CRC calculations : Yes
Used interface : Installed external ASPI interface
Used output format : Internal WAV Routines
Sample format : 44.100 Hz; 16 Bit; Stereo
TOC of the extracted CD
Track | Start | Length | Start sector | End sector
---------------------------------------------------------
1 | 0:00.00 | 1:30.61 | 0 | 6810
2 | 1:30.61 | 6:16.72 | 6811 | 35082
3 | 7:47.58 | 5:33.12 | 35083 | 60069
4 | 13:20.70 | 1:36.37 | 60070 | 67306
5 | 14:57.32 | 4:35.02 | 67307 | 87933
6 | 19:32.34 | 6:20.34 | 87934 | 116467
7 | 25:52.68 | 6:19.20 | 116468 | 144912
8 | 32:12.13 | 4:47.28 | 144913 | 166465
9 | 36:59.41 | 9:23.18 | 166466 | 208708
10 | 46:22.59 | 2:40.08 | 208709 | 220716
Range status and errors
Selected range
Filename D:\_EAC\Helfahrt - Wiedergang.wav
Peak level 100.0 %
Range quality 100.0 %
Copy CRC E3175DF3
Copy OK
No errors occurred
AccurateRip summary
Track 1 accurately ripped (confidence 2) [3B0FB2DA]
Track 2 accurately ripped (confidence 2) [22F1F2F3]
Track 3 accurately ripped (confidence 2) [1ACC3072]
Track 4 accurately ripped (confidence 2) [F35D80A3]
Track 5 accurately ripped (confidence 2) [7A1F5C8D]
Track 6 accurately ripped (confidence 2) [6064E8C3]
Track 7 accurately ripped (confidence 2) [F2A31EEB]
Track 8 accurately ripped (confidence 2) [5A14F4D8]
Track 9 accurately ripped (confidence 2) [39A6348E]
Track 10 accurately ripped (confidence 2) [5FF1B085]
All tracks accurately ripped
End of status report

Для скачивания файла отключите блокировку рекламы и перезагрузите страницу.

disable adblock Как отключить блокировку рекламы?

Скачать по магнет ссылке 349 MB 

Войти с помощью:

Загрузка...
Загрузка...


   
Текущее время: 21-Июн 10:32 :: Часовой пояс: UTC ± 0