The Complete Candid Otis Spann & Lightnin' Hopkins Sessions (BoxSet, 3CD)
Жанр: Piano/Acoustic Blues
Год выпуска диска: 1992
Производитель диска: Mosaic
Аудио кодек: FLAC
Тип рипа: tracks+.cue
Битрейт аудио: lossless
Продолжительность: 3:36:33
Сканы: напрочь отсутствуют...
Источник: благодарности уходят к пропавшему demon'у и автору!
Доп. информация:
Отличный блюз от Отиса и Сэма. Только положительные впечатления!
Преимущественно играет пианино, но "молниеносная" гитара прекрасно
дополняет её, хотя аккомпанемент не его конек
allMusic.com
Участники:
Otis Spann: Piano, Vocals, Main Performer
Robert Lockwood, Jr.: Guitar, Vocals
Lightnin' Hopkins: Guitar, Piano, Performer
St. Louis Jimmy Oden: Vocals, Vocals (Background)

Треклист

За доп.подробности по дискам спасибо 19.26 !-CD #1 - The Complete Candid Otis Spann (Otis Spann Is the Blues, 1960)
Otis Spann - Piano, Vocals
Robert Lockwood, Jr. - Guitar, Vocals

Дата записи: Aug 23, 1960
Продолжительность: 74:12
Треклист:
01. Beat-Up Team (6:39), Otis Spann
02. Great Northern Stomp (4:17), Otis Spann
03. Cow Cow Blues (4:19), Charles "Cow Cow" Davenport
04. Walkin' The Blues (4:58), Otis Spann
05. Otis In The Dark (4:38), Otis Spann
06. This Is The Blues (3:13), Otis Spann
07. Worried Life Blues (4:22), Big Maceo Merriweather
08. Country Boy (4:27), Otis Spann
09. Beat-Up Team (6:04), Otis Spann
10. The Hard Way (5:06), Otis Spann
11. My Home Is On The Delta (3:14), McKinley Morganfield
12. It Must Have Been The Devil (3:46), Otis Spann
13. Take A Little Walk With Me (3:29), Robert Lockwood, Jr.
14. Ramblin' On My Mind (4:06), Robert Johnson
15. Little Boy Blue (3:44), Robert Lockwood, Jr.
16. My Daily Wish (4:29), Robert Lockwood, Jr.
17. Spann And Bob (3:19), Robert Lockwood Jr., Otis Spann-CD #2 - The Complete Candid Otis Spann (Walking the Blues, 1972)
Otis Spann - Piano, Vocals
Robert Lockwood, Jr. - Guitar, Vocals
James Burke Oden - Vocals
St. Louis Jimmy Oden - Vocals

Дата записи: Aug 23, 1960
Продолжительность: 73:32
Треклист:
01. Monkey Face Blues (4:59), James Burke Oden
02. One Doggone Reason (2:43), James Burke Oden
03. Strange Woman Blues (3:54), James Burke Oden
04. It Hurts Me Too (4:58), Tampa Red
05. Baby Child (take 3) (4:29), Andrew McMahon
06. Baby Child (take 5) (4:07), Andrew McMahon
07. Talkin' The Blues (take 1) (5:45), Improv.
08. Talkin' The Blues (take 3) (5:22), Improv.
09. Can't Stand Your Evil Ways (take 2) (3:46), James Burke Oden
10. Otis' Blues (4:18), Otis Spann
11. Half Ain't Been Told (4:43), Otis Spann, James Burke Oden
12. Can't Stand Your Evil Ways (take 4) (3:52), James Burke Oden
13. Goin' Down Slow (4:00), James Burke Oden
14. The Girl I Love (3:50), James Burke Oden
15. Bad Condition (4:23), James Burke Oden
16. Come Day, Go Day (take 2) (4:12), James Burke Oden
17. Come Day, Go Day (take 3) (4:11), James Burke Oden-CD #3 - Lightnin' Hopkins Sessions (In New York, 1970 + Lightnin' in New York, 2003)
Lightnin' Hopkins - Guitar, Piano, Vocals
Дата записи: Nov 15, 1960
Продолжительность: 68:49
Треклист:
01. Rainy Highway (3:12), Lightnin' Hopkins
02. When My First Wife Quit Me (3:27), Lightnin' Hopkins
03. Walk On (4:33), Lightnin' Hopkins
04. Lightin's Guitar Boogie (4:07), Lightnin' Hopkins
05. I've Had My Fun If I Don't Get Well No More (3:59), Lightnin' Hopkins
06. Mister Charlie (7:33), Lightnin' Hopkins
07. Might Crazy (7:10), Lightnin' Hopkins
08. Wonder Why (6:17), Lightnin' Hopkins
09. Black Cat (6:28), Lightnin' Hopkins
10. The Trouble Blues (4:46), Lightnin' Hopkins
11. Your Own Fault, Baby, To Treat Me The Way You Do (4:50), Lightnin' Hopkins
12. Lightin' Piano Boogie (2:33), Lightnin' Hopkins
13. Take It Easy (6:21), Lightnin' Hopkins
14. Come Go Home With Me (3:32), Lightnin' Hopkins
ОтчетыВ отличии от предыдущей раздачи небезызвестного мастера-переделкина mfrwiz, здесь файлы в первозданном виде
Тест на СДДА-шность пройден, результаты в раздаче. В первом диске нет лога и куя...
CD #1 - EAC
Нет

CD #1 - AccuRip

[Verification date: 14.07.2009 17:58:36]
[Disc ID: 00306f00-025c09b7-0c116311]
Track [ CRC ] Status
01 [3667ac07] (00/02) No matches
02 [3ae11fc7] (00/02) No matches
03 [65e1ff88] (00/02) No matches
04 [13639985] (00/02) No matches
05 [a82c0103] (00/02) No matches
06 [fd18137d] (00/02) No matches
07 [3411ef39] (00/02) No matches
08 [97b3d7f6] (00/02) No matches
09 [4cc7d79b] (00/02) No matches
10 [375c698c] (00/02) No matches
11 [6809fec3] (00/02) No matches
12 [8d9cb231] (00/02) No matches
13 [6610786b] (00/02) No matches
14 [9800ff5c] (00/02) No matches
15 [3e9032b6] (00/02) No matches
16 [c9edf36d] (00/02) No matches
17 [a0768510] (00/02) No matches
Offsetted by 6:
01 [1756806b] (02/02) Accurately ripped as in pressing(s) #1
02 [413fda81] (02/02) Accurately ripped as in pressing(s) #1
03 [5db9b8a2] (02/02) Accurately ripped as in pressing(s) #1
04 [4e3e3a57] (02/02) Accurately ripped as in pressing(s) #1
05 [07924201] (02/02) Accurately ripped as in pressing(s) #1
06 [d1d96053] (02/02) Accurately ripped as in pressing(s) #1
07 [5fc72c61] (02/02) Accurately ripped as in pressing(s) #1
08 [1a5053d2] (02/02) Accurately ripped as in pressing(s) #1
09 [78c786bd] (02/02) Accurately ripped as in pressing(s) #1
10 [d6e2ee24] (02/02) Accurately ripped as in pressing(s) #1
11 [e9da4087] (02/02) Accurately ripped as in pressing(s) #1
12 [cccb281d] (02/02) Accurately ripped as in pressing(s) #1
13 [51752821] (02/02) Accurately ripped as in pressing(s) #1
14 [0ca00624] (02/02) Accurately ripped as in pressing(s) #1
15 [90d2b8c0] (02/02) Accurately ripped as in pressing(s) #1
16 [b62fecef] (02/02) Accurately ripped as in pressing(s) #1
17 [63a845ad] (02/02) Accurately ripped as in pressing(s) #1
Track [ CRC32 ] [W/O NULL]
-- [402976BB] [6F12D43C]
01 [CFC54053] [C892C955]
02 [C1699786] [21A0F47B]
03 [F27FB611] [88827D0E]
04 [21F16AC1] [551530DD]
05 [8D9988FF] [2F74EEB2]
06 [3D31F8A2] [B608935B]
07 [0C6EAE05] [7CEE46AD]
08 [2C3EF1CB] [3FFD1956]
09 [E7B3C86C] [CB61E21C]
10 [2FF45E26] [C3599B76]
11 [C6F59D5E] [8FEFC890]
12 [AD10F5EE] [3C2DEF2C]
13 [6585E1C4] [DE27D277]
14 [1CE56B3E] [AE25B1CD]
15 [1F7DAAA3] [32046C5E]
16 [D01B7829] [301AE005]
17 [E8CE052E] [8BD5D089]

CD #2 - EAC

Exact Audio Copy V0.99 prebeta 4 from 23. January 2008
EAC extraction logfile from 15. March 2009, 20:17
Otis Spann / The Complete Candid Otis Spann/Lightin' Hopkins Sessions Disc 2
Used drive : TSSTcorpCD/DVDW TS-H653L Adapter: 3 ID: 0
Read mode : Secure
Utilize accurate stream : Yes
Defeat audio cache : Yes
Make use of C2 pointers : No
Read offset correction : 6
Overread into Lead-In and Lead-Out : No
Fill up missing offset samples with silence : Yes
Delete leading and trailing silent blocks : No
Null samples used in CRC calculations : Yes
Used interface : Native Win32 interface for Win NT & 2000
Gap handling : Appended to previous track
Used output format : User Defined Encoder
Selected bitrate : 128 kBit/s
Quality : High
Add ID3 tag : No
Command line compressor : C:\Program Files\Exact Audio Copy\Flac\flac.exe
Additional command line options : -V -8 -T "artist=%a" -T "title=%t" -T "album=%g" -T "date=%y" -T "tracknumber=%n" -T "genre=%m" %s
TOC of the extracted CD
Track | Start | Length | Start sector | End sector
---------------------------------------------------------
1 | 0:00.00 | 4:58.67 | 0 | 22416
2 | 4:58.67 | 2:42.60 | 22417 | 34626
3 | 7:41.52 | 3:54.08 | 34627 | 52184
4 | 11:35.60 | 4:58.27 | 52185 | 74561
5 | 16:34.12 | 4:29.08 | 74562 | 94744
6 | 21:03.20 | 4:06.70 | 94745 | 113264
7 | 25:10.15 | 5:45.15 | 113265 | 139154
8 | 30:55.30 | 5:21.67 | 139155 | 163296
9 | 36:17.22 | 3:45.60 | 163297 | 180231
10 | 40:03.07 | 4:17.58 | 180232 | 199564
11 | 44:20.65 | 4:42.47 | 199565 | 220761
12 | 49:03.37 | 3:52.35 | 220762 | 238196
13 | 52:55.72 | 3:59.63 | 238197 | 256184
14 | 56:55.60 | 3:50.32 | 256185 | 273466
15 | 60:46.17 | 4:23.23 | 273467 | 293214
16 | 65:09.40 | 4:11.62 | 293215 | 312101
17 | 69:21.27 | 4:10.40 | 312102 | 330891
Track 1
Filename C:\EAC Rips\01 - Monkey Face Blues.wav
Pre-gap length 0:00:02.00
Peak level 94.8 %
Track quality 100.0 %
Test CRC A0CA772B
Copy CRC A0CA772B
Accurately ripped (confidence 2) [6759E766]
Copy OK
Track 2
Filename C:\EAC Rips\02 - One Doggone Reason.wav
Pre-gap length 0:00:02.86
Peak level 87.6 %
Track quality 100.0 %
Test CRC E01A81F5
Copy CRC E01A81F5
Accurately ripped (confidence 2) [1A3AA618]
Copy OK
Track 3
Filename C:\EAC Rips\03 - Strange Woman Blues.wav
Pre-gap length 0:00:02.22
Peak level 75.6 %
Track quality 99.9 %
Test CRC 99359657
Copy CRC 99359657
Accurately ripped (confidence 2) [3128FA3F]
Copy OK
Track 4
Filename C:\EAC Rips\04 - It Hurts Me Too.wav
Pre-gap length 0:00:02.57
Peak level 85.3 %
Track quality 100.0 %
Test CRC 55CDA00E
Copy CRC 55CDA00E
Accurately ripped (confidence 2) [7D8F4E18]
Copy OK
Track 5
Filename C:\EAC Rips\05 - Baby Child (take 3).wav
Pre-gap length 0:00:02.66
Peak level 89.7 %
Track quality 100.0 %
Test CRC 5865B453
Copy CRC 5865B453
Accurately ripped (confidence 2) [4089795A]
Copy OK
Track 6
Filename C:\EAC Rips\06 - Baby Child (take 5).wav
Pre-gap length 0:00:02.66
Peak level 90.1 %
Track quality 100.0 %
Test CRC 1D1075A9
Copy CRC 1D1075A9
Accurately ripped (confidence 2) [888C9115]
Copy OK
Track 7
Filename C:\EAC Rips\07 - Talkin' The Blues (take 1).wav
Pre-gap length 0:00:02.77
Peak level 82.8 %
Track quality 100.0 %
Test CRC 41966A80
Copy CRC 41966A80
Accurately ripped (confidence 2) [2AD46E99]
Copy OK
Track 8
Filename C:\EAC Rips\08 - Talkin' The Blues (take 3).wav
Pre-gap length 0:00:02.00
Peak level 83.4 %
Track quality 100.0 %
Test CRC EB0311E7
Copy CRC EB0311E7
Accurately ripped (confidence 2) [677F6358]
Copy OK
Track 9
Filename C:\EAC Rips\09 - Can't Stand Your Evil Ways (take 2).wav
Pre-gap length 0:00:02.60
Peak level 88.9 %
Track quality 99.9 %
Test CRC 112B1246
Copy CRC 112B1246
Accurately ripped (confidence 2) [DC574C03]
Copy OK
Track 10
Filename C:\EAC Rips\10 - Otis' Blues.wav
Pre-gap length 0:00:02.80
Peak level 88.7 %
Track quality 100.0 %
Test CRC 18C2CD52
Copy CRC 18C2CD52
Accurately ripped (confidence 2) [6EA3B473]
Copy OK
Track 11
Filename C:\EAC Rips\11 - Half Ain't Been Told.wav
Pre-gap length 0:00:02.46
Peak level 88.8 %
Track quality 100.0 %
Test CRC FC759396
Copy CRC FC759396
Accurately ripped (confidence 2) [E9D1B768]
Copy OK
Track 12
Filename C:\EAC Rips\12 - Can't Stand Your Evil Ways (take 4).wav
Pre-gap length 0:00:02.36
Peak level 90.6 %
Track quality 100.0 %
Test CRC 2C27143E
Copy CRC 2C27143E
Accurately ripped (confidence 2) [C9DF36B9]
Copy OK
Track 13
Filename C:\EAC Rips\13 - Goin' Down Slow.wav
Pre-gap length 0:00:01.73
Peak level 95.1 %
Track quality 100.0 %
Test CRC AADF01E3
Copy CRC AADF01E3
Accurately ripped (confidence 2) [E3B2FD76]
Copy OK
Track 14
Filename C:\EAC Rips\14 - The Girl I Love.wav
Pre-gap length 0:00:02.80
Peak level 87.5 %
Track quality 100.0 %
Test CRC F0CABBC7
Copy CRC F0CABBC7
Accurately ripped (confidence 2) [6F8167ED]
Copy OK
Track 15
Filename C:\EAC Rips\15 - Bad Condition.wav
Pre-gap length 0:00:02.36
Peak level 80.7 %
Track quality 99.9 %
Test CRC 81F25391
Copy CRC 81F25391
Accurately ripped (confidence 2) [8DF51CBB]
Copy OK
Track 16
Filename C:\EAC Rips\16 - Come Day, Go Day (take 2).wav
Pre-gap length 0:00:02.60
Peak level 81.7 %
Track quality 100.0 %
Test CRC 0F18D8ED
Copy CRC 0F18D8ED
Accurately ripped (confidence 2) [E24AFA3A]
Copy OK
Track 17
Filename C:\EAC Rips\17 - Come Day, Go Day (take 3).wav
Pre-gap length 0:00:02.26
Peak level 85.9 %
Track quality 100.0 %
Test CRC E8B66723
Copy CRC E8B66723
Accurately ripped (confidence 2) [D4E447FF]
Copy OK
All tracks accurately ripped
No errors occurred
End of status report

CD #2 - AccuRip

[Verification date: 14.07.2009 17:59:04]
[Disc ID: 002dc256-0244be31-01113b11]
Track [ CRC ] Status
01 [6759e766] (03/03) Accurately ripped as in pressing(s) #1
02 [1a3aa618] (03/03) Accurately ripped as in pressing(s) #1
03 [3128fa3f] (03/03) Accurately ripped as in pressing(s) #1
04 [7d8f4e18] (03/03) Accurately ripped as in pressing(s) #1
05 [4089795a] (03/03) Accurately ripped as in pressing(s) #1
06 [888c9115] (03/03) Accurately ripped as in pressing(s) #1
07 [2ad46e99] (03/03) Accurately ripped as in pressing(s) #1
08 [677f6358] (03/03) Accurately ripped as in pressing(s) #1
09 [dc574c03] (03/03) Accurately ripped as in pressing(s) #1
10 [6ea3b473] (03/03) Accurately ripped as in pressing(s) #1
11 [e9d1b768] (03/03) Accurately ripped as in pressing(s) #1
12 [c9df36b9] (03/03) Accurately ripped as in pressing(s) #1
13 [e3b2fd76] (03/03) Accurately ripped as in pressing(s) #1
14 [6f8167ed] (03/03) Accurately ripped as in pressing(s) #1
15 [8df51cbb] (03/03) Accurately ripped as in pressing(s) #1
16 [e24afa3a] (03/03) Accurately ripped as in pressing(s) #1
17 [d4e447ff] (03/03) Accurately ripped as in pressing(s) #1
Track [ CRC32 ] [W/O NULL] [ LOG ]
-- [FC591C45] [E944C958]
01 [A0CA772B] [BBE1535B] CRC32
02 [E01A81F5] [993B37C3] CRC32
03 [99359657] [DDD85CA5] CRC32
04 [55CDA00E] [0ED3CAA0] CRC32
05 [5865B453] [156E9A08] CRC32
06 [1D1075A9] [711FD9BB] CRC32
07 [41966A80] [809BF2CB] CRC32
08 [EB0311E7] [74193E6F] CRC32
09 [112B1246] [3084A0EC] CRC32
10 [18C2CD52] [328EA609] CRC32
11 [FC759396] [473FCC71] CRC32
12 [2C27143E] [41D92FB0] CRC32
13 [AADF01E3] [A765BD30] CRC32
14 [F0CABBC7] [CCEAFA1A] CRC32
15 [81F25391] [67563595] CRC32
16 [0F18D8ED] [C76DE5E9] CRC32
17 [E8B66723] [46016962] CRC32

CD #3 - EAC

Exact Audio Copy V0.99 prebeta 4 from 23. January 2008
EAC extraction logfile from 16. March 2009, 7:11
Otis Spann / The Complete Candid Otis Spann/Lightin' Hopkins Sessions Disc 3
Used drive : TSSTcorpCD/DVDW TS-H653L Adapter: 3 ID: 0
Read mode : Secure
Utilize accurate stream : Yes
Defeat audio cache : Yes
Make use of C2 pointers : No
Read offset correction : 6
Overread into Lead-In and Lead-Out : No
Fill up missing offset samples with silence : Yes
Delete leading and trailing silent blocks : No
Null samples used in CRC calculations : Yes
Used interface : Native Win32 interface for Win NT & 2000
Gap handling : Appended to previous track
Used output format : User Defined Encoder
Selected bitrate : 128 kBit/s
Quality : High
Add ID3 tag : No
Command line compressor : C:\Program Files\Exact Audio Copy\Flac\flac.exe
Additional command line options : -V -8 -T "artist=%a" -T "title=%t" -T "album=%g" -T "date=%y" -T "tracknumber=%n" -T "genre=%m" %s
TOC of the extracted CD
Track | Start | Length | Start sector | End sector
---------------------------------------------------------
1 | 0:00.00 | 3:12.00 | 0 | 14399
2 | 3:12.00 | 3:27.20 | 14400 | 29944
3 | 6:39.20 | 4:33.15 | 29945 | 50434
4 | 11:12.35 | 4:07.00 | 50435 | 68959
5 | 15:19.35 | 3:59.12 | 68960 | 86896
6 | 19:18.47 | 7:32.58 | 86897 | 120854
7 | 26:51.30 | 7:10.07 | 120855 | 153111
8 | 34:01.37 | 6:17.25 | 153112 | 181411
9 | 40:18.62 | 6:28.23 | 181412 | 210534
10 | 46:47.10 | 4:45.62 | 210535 | 231971
11 | 51:32.72 | 4:49.38 | 231972 | 253684
12 | 56:22.35 | 2:32.52 | 253685 | 265136
13 | 58:55.12 | 6:21.25 | 265137 | 293736
14 | 65:16.37 | 3:32.30 | 293737 | 309666
Track 1
Filename C:\EAC Rips\01 - Rainy Highway.wav
Pre-gap length 0:00:02.00
Peak level 99.4 %
Track quality 100.0 %
Test CRC 1394F194
Copy CRC 1394F194
Accurately ripped (confidence 2) [38B4CEC5]
Copy OK
Track 2
Filename C:\EAC Rips\02 - When My First Wife Quit Me.wav
Pre-gap length 0:00:02.33
Peak level 95.1 %
Track quality 100.0 %
Test CRC 6F074D30
Copy CRC 6F074D30
Accurately ripped (confidence 2) [7B8AE7F0]
Copy OK
Track 3
Filename C:\EAC Rips\03 - Walk On.wav
Pre-gap length 0:00:01.90
Peak level 98.3 %
Track quality 100.0 %
Test CRC 3D0C553B
Copy CRC 3D0C553B
Accurately ripped (confidence 2) [9468EB05]
Copy OK
Track 4
Filename C:\EAC Rips\04 - Lightin's Guitar Boogie.wav
Pre-gap length 0:00:02.33
Peak level 87.6 %
Track quality 100.0 %
Test CRC 368E2BCA
Copy CRC 368E2BCA
Accurately ripped (confidence 2) [73B1EC47]
Copy OK
Track 5
Filename C:\EAC Rips\05 - I've Had My Fun If I Don't Get Well No More.wav
Pre-gap length 0:00:02.57
Peak level 77.1 %
Track quality 100.0 %
Test CRC 63C69EC6
Copy CRC 63C69EC6
Accurately ripped (confidence 3) [35101115]
Copy OK
Track 6
Filename C:\EAC Rips\06 - Mister Charlie.wav
Pre-gap length 0:00:02.80
Peak level 100.0 %
Track quality 100.0 %
Test CRC 9F8DCD7B
Copy CRC 9F8DCD7B
Accurately ripped (confidence 2) [EA725CE8]
Copy OK
Track 7
Filename C:\EAC Rips\07 - Might Crazy.wav
Pre-gap length 0:00:02.60
Peak level 97.4 %
Track quality 100.0 %
Test CRC 167C4C36
Copy CRC 167C4C36
Accurately ripped (confidence 2) [21A318EB]
Copy OK
Track 8
Filename C:\EAC Rips\08 - Wonder Why.wav
Pre-gap length 0:00:02.13
Peak level 100.0 %
Track quality 100.0 %
Test CRC 0B0509AC
Copy CRC 0B0509AC
Accurately ripped (confidence 2) [AD230FE8]
Copy OK
Track 9
Filename C:\EAC Rips\09 - Black Cat.wav
Pre-gap length 0:00:01.49
Peak level 95.5 %
Track quality 100.0 %
Test CRC 26B850C5
Copy CRC 26B850C5
Accurately ripped (confidence 2) [EE23440C]
Copy OK
Track 10
Filename C:\EAC Rips\10 - The Trouble Blues.wav
Pre-gap length 0:00:02.90
Peak level 88.5 %
Track quality 100.0 %
Test CRC E815C749
Copy CRC E815C749
Accurately ripped (confidence 2) [9797274B]
Copy OK
Track 11
Filename C:\EAC Rips\11 - Your Own Fault, Baby, To Treat Me The Way You Do.wav
Pre-gap length 0:00:02.09
Peak level 90.4 %
Track quality 100.0 %
Test CRC 18C25BE0
Copy CRC 18C25BE0
Accurately ripped (confidence 3) [A244C229]
Copy OK
Track 12
Filename C:\EAC Rips\12 - Lightin' Piano Boogie.wav
Pre-gap length 0:00:03.04
Peak level 79.7 %
Track quality 100.0 %
Test CRC 29438D1C
Copy CRC 29438D1C
Accurately ripped (confidence 2) [347B8211]
Copy OK
Track 13
Filename C:\EAC Rips\13 - Take It Easy.wav
Pre-gap length 0:00:02.40
Peak level 100.0 %
Track quality 100.0 %
Test CRC D5A617D7
Copy CRC D5A617D7
Accurately ripped (confidence 2) [08557917]
Copy OK
Track 14
Filename C:\EAC Rips\14 - Come Go Home With Me.wav
Pre-gap length 0:00:02.36
Peak level 83.3 %
Track quality 100.0 %
Test CRC E488CF90
Copy CRC E488CF90
Accurately ripped (confidence 2) [FC0B5386]
Copy OK
All tracks accurately ripped
No errors occurred
End of status report

CD #3 - AccuRip

[Verification date: 31.07.2009 22:58:25]
[Disc ID: 0022a61d-017a5979-b210200e]
Track [ CRC ] Status
01 [38b4cec5] (03/03) Accurately ripped as in pressing(s) #1
02 [7b8ae7f0] (03/03) Accurately ripped as in pressing(s) #1
03 [9468eb05] (03/03) Accurately ripped as in pressing(s) #1
04 [73b1ec47] (03/03) Accurately ripped as in pressing(s) #1
05 [35101115] (03/03) Accurately ripped as in pressing(s) #1
06 [ea725ce8] (03/03) Accurately ripped as in pressing(s) #1
07 [21a318eb] (03/03) Accurately ripped as in pressing(s) #1
08 [ad230fe8] (03/03) Accurately ripped as in pressing(s) #1
09 [ee23440c] (03/03) Accurately ripped as in pressing(s) #1
10 [9797274b] (03/03) Accurately ripped as in pressing(s) #1
11 [a244c229] (03/03) Accurately ripped as in pressing(s) #1
12 [347b8211] (03/03) Accurately ripped as in pressing(s) #1
13 [08557917] (03/03) Accurately ripped as in pressing(s) #1
14 [fc0b5386] (03/03) Accurately ripped as in pressing(s) #1
Track [ CRC32 ] [W/O NULL] [ LOG ]
-- [9C022525] [EA9B7BF3]
01 [1394F194] [052A9A33] CRC32
02 [6F074D30] [F9C5A24F] CRC32
03 [3D0C553B] [97882EC0] CRC32
04 [368E2BCA] [1B132CB9] CRC32
05 [63C69EC6] [D1E59A57] CRC32
06 [9F8DCD7B] [97731687] CRC32
07 [167C4C36] [EAD916A3] CRC32
08 [0B0509AC] [B96990EE] CRC32
09 [26B850C5] [5EEDCAFB] CRC32
10 [E815C749] [292D96F5] CRC32
11 [18C25BE0] [853FAE10] CRC32
12 [29438D1C] [7C0E5078] CRC32
13 [D5A617D7] [C2DE68A9] CRC32
14 [E488CF90] [393446ED] CRC32
-Lightnin' Hopkins - дискография в lossless

If you like the topic, please click share to help develop our site.

To download the file disable ad blocking, and reload the page.

disable adblock How to disable ad blocking?

Download by magnet link 1.02 GB Download Torrent

Login using:

Similar topics



   
Current time is: 21-Mar 17:39 :: All times are UTC + 3