Roy Buchanan - The Prophet (The Unreleased First Polydor Album)
Жанр: Blues Rock
Год выпуска диска: 2004
Производитель диска: Hip-O-Select/Polydor
Аудио кодек: FLAC
Тип рипа: tracks+.cue
Битрейт аудио: lossless
Продолжительность: 75:30
Сканы: полный комплект (jpg)
Треклист:
01. Funky Junky (2:10)
02. Black Autumn (4:30)
03. Day And Age (2:56)
04. There'll Always Be (4:54)
05. Billy Joe Young (4:42)
06. The Story Of Isaac (5:53)
07. Baltimore (3:34)
08. Sign On The Window (3:45)
09. Humbug Down On The River (2:38)
10. Pain (3:31)
11. I Desire You (5:59)
12. Stormy Monday (4:23)
13. Jam (2:23)
14. Roy's Bluz (7:14)
15. Shotgun (4:42)
16. After Hours/The Messiah Will Come Again (6:57)
17. Sweet Dreams (5:21)
Доп. информация:
Один из немногих отсутствующих у нас альбомов в дискографии этого музыканта.
Компания Polygram записала этот альбом, приготовив его к реализации, когда Buchanan неожиданно для всех самостоятельно выпустил кустарно сделанный и скверно оформленный диск Buck & the Snake Stretchers. Этим поступком Roy поставил крест на дальнейших записях для этой крупной компании, которая так и не выпустила тогда этот диск в продажу. Записанный материал увидел свет только в 2004-ом году.
(краткое описание взято из раздачи - Roy Buchanan - The Prophet - 2004, MP3, спасибо n7d5)
allMusic.com

Источник

Thanks to whatcd and uploader!

Техническая информация

Отчет EAC

EAC extraction logfile from 10. November 2006, 1:25 for CD
Roy Buchanan / The Prophet
Used drive : LITE-ON DVD SOHD-16P9S Adapter: 0 ID: 1
Read mode : Secure with NO C2, accurate stream, disable cache
Read offset correction : 6
Overread into Lead-In and Lead-Out : No
Used output format : C:\Program Files\FLAC\flac.exe (User Defined Encoder)
128 kBit/s
Additional command line options : -V -8 -T "artist=%a" -T "title=%t" -T "album=%g" -T "date=%y" -T "tracknumber=%n" -T "genre=%m" %s
Other options :
Fill up missing offset samples with silence : Yes
Delete leading and trailing silent blocks : No
Native Win32 interface for Win NT & 2000
Track 1
Filename C:\Roy Buchanan - The Prophet\01 - Funky Junky.wav
Pre-gap length 0:00:02.00
Peak level 93.5 %
Track quality 100.0 %
Test CRC E49B71F7
Copy CRC E49B71F7
Copy OK
Track 2
Filename C:\Roy Buchanan - The Prophet\02 - Black Autumn.wav
Peak level 95.5 %
Track quality 100.0 %
Test CRC 831CD529
Copy CRC 831CD529
Copy OK
Track 3
Filename C:\Roy Buchanan - The Prophet\03 - Day And Age.wav
Pre-gap length 0:00:00.06
Peak level 96.8 %
Track quality 100.0 %
Test CRC FD60E939
Copy CRC FD60E939
Copy OK
Track 4
Filename C:\Roy Buchanan - The Prophet\04 - There'll Always Be.wav
Pre-gap length 0:00:00.11
Peak level 96.4 %
Track quality 100.0 %
Test CRC 2FFC342C
Copy CRC 2FFC342C
Copy OK
Track 5
Filename C:\Roy Buchanan - The Prophet\05 - Billy Joe Young.wav
Pre-gap length 0:00:00.17
Peak level 96.8 %
Track quality 99.9 %
Test CRC F9E67470
Copy CRC F9E67470
Copy OK
Track 6
Filename C:\Roy Buchanan - The Prophet\06 - The Story Of Isaac.wav
Peak level 96.2 %
Track quality 100.0 %
Test CRC C4A93D0B
Copy CRC C4A93D0B
Copy OK
Track 7
Filename C:\Roy Buchanan - The Prophet\07 - Baltimore.wav
Peak level 79.8 %
Track quality 100.0 %
Test CRC 64CF9E54
Copy CRC 64CF9E54
Copy OK
Track 8
Filename C:\Roy Buchanan - The Prophet\08 - Sign On The Window.wav
Peak level 92.8 %
Track quality 99.9 %
Test CRC FEC9BFD6
Copy CRC FEC9BFD6
Copy OK
Track 9
Filename C:\Roy Buchanan - The Prophet\09 - Humbug Down On The River.wav
Peak level 96.8 %
Track quality 100.0 %
Test CRC CBD00994
Copy CRC CBD00994
Copy OK
Track 10
Filename C:\Roy Buchanan - The Prophet\10 - Pain.wav
Peak level 92.7 %
Track quality 100.0 %
Test CRC 8F6A50FF
Copy CRC 8F6A50FF
Copy OK
Track 11
Filename C:\Roy Buchanan - The Prophet\11 - I Desire You.wav
Peak level 97.5 %
Track quality 100.0 %
Test CRC C1888F36
Copy CRC C1888F36
Copy OK
Track 12
Filename C:\Roy Buchanan - The Prophet\12 - Stormy Monday.wav
Peak level 72.8 %
Track quality 100.0 %
Test CRC 62208BB7
Copy CRC 62208BB7
Copy OK
Track 13
Filename C:\Roy Buchanan - The Prophet\13 - Jam.wav
Peak level 62.9 %
Track quality 100.0 %
Test CRC C7E823A5
Copy CRC C7E823A5
Copy OK
Track 14
Filename C:\Roy Buchanan - The Prophet\14 - Roy's Bluz.wav
Peak level 89.0 %
Track quality 100.0 %
Test CRC 40B6F577
Copy CRC 40B6F577
Copy OK
Track 15
Filename C:\Roy Buchanan - The Prophet\15 - Shotgun.wav
Peak level 89.2 %
Track quality 100.0 %
Test CRC 88E64F59
Copy CRC 88E64F59
Copy OK
Track 16
Filename C:\Roy Buchanan - The Prophet\16 - After Hours,The Messiah Will Come Again.wav
Peak level 89.0 %
Track quality 100.0 %
Test CRC 6468FB3F
Copy CRC 6468FB3F
Copy OK
Track 17
Filename C:\Roy Buchanan - The Prophet\17 - Sweet Dreams.wav
Peak level 89.0 %
Track quality 99.6 %
Test CRC 87116131
Copy CRC 87116131
Copy OK
No errors occured
End of status report

Отчет AccuRip Test (CueTools 1.9.5a)

[Verification date: 09.09.2009 22:07:24]
[Disc ID: 002ad667-0228abcb-d611b111]
Track [ CRC ] Status
01 [b77d034b] (02/02) Accurately ripped as in pressing(s) #1
02 [2bc070bb] (02/02) Accurately ripped as in pressing(s) #1
03 [0f8cf2a6] (02/02) Accurately ripped as in pressing(s) #1
04 [8e28e165] (02/02) Accurately ripped as in pressing(s) #1
05 [abfc3036] (02/02) Accurately ripped as in pressing(s) #1
06 [3d142bb5] (02/02) Accurately ripped as in pressing(s) #1
07 [a203f42d] (02/02) Accurately ripped as in pressing(s) #1
08 [9ff64149] (02/02) Accurately ripped as in pressing(s) #1
09 [5801b7b2] (02/02) Accurately ripped as in pressing(s) #1
10 [b5e10a45] (02/02) Accurately ripped as in pressing(s) #1
11 [59fa63a5] (02/02) Accurately ripped as in pressing(s) #1
12 [a6b17196] (02/02) Accurately ripped as in pressing(s) #1
13 [33467363] (02/02) Accurately ripped as in pressing(s) #1
14 [ff57f7a9] (02/02) Accurately ripped as in pressing(s) #1
15 [f8ee0eb0] (02/02) Accurately ripped as in pressing(s) #1
16 [1f6b6c31] (02/02) Accurately ripped as in pressing(s) #1
17 [b858fe7d] (02/02) Accurately ripped as in pressing(s) #1
Track [ CRC32 ] [W/O NULL] [ LOG ]
-- [B883D804] [FAB51771]
01 [E49B71F7] [35DEB190] CRC32
02 [831CD529] [0DAE4796] CRC32
03 [FD60E939] [8DC454E4] CRC32
04 [2FFC342C] [06E0B44F] CRC32
05 [F9E67470] [788819BF] CRC32
06 [C4A93D0B] [F4F06A66] CRC32
07 [64CF9E54] [CCE80ED1] CRC32
08 [FEC9BFD6] [C42D1775] CRC32
09 [CBD00994] [1C930BAA] CRC32
10 [8F6A50FF] [CB908197] CRC32
11 [C1888F36] [3A78441F] CRC32
12 [62208BB7] [58277900] CRC32
13 [C7E823A5] [CA6B8B8F] CRC32
14 [40B6F577] [06BF2FCF] CRC32
15 [88E64F59] [FA1BC4D3] CRC32
16 [6468FB3F] [552CCD61] CRC32
17 [87116131] [0541F002] CRC32

Отчет auCDtect.exe

>auCDtect.exe -m0 -d *.wav
auCDtect: CD records authenticity detector, version 0.8.2
Copyright (c) 2004 Oleg Berngardt. All rights reserved.
Copyright (c) 2004 Alexander Djourik. All rights reserved.
------------------------------------------------------------
Processing file: [01. Funky Junky.wav]
------------------------------------------------------------
This track looks like CDDA with probability 100%
------------------------------------------------------------
Processing file: [02. Black Autumn.wav]
------------------------------------------------------------
This track looks like CDDA with probability 100%
------------------------------------------------------------
Processing file: [03. Day And Age.wav]
------------------------------------------------------------
This track looks like CDDA with probability 100%
------------------------------------------------------------
Processing file: [04. There'll Always Be.wav]
------------------------------------------------------------
This track looks like CDDA with probability 100%
------------------------------------------------------------
Processing file: [05. Billy Joe Young.wav]
------------------------------------------------------------
This track looks like CDDA with probability 100%
------------------------------------------------------------
Processing file: [06. The Story Of Isaac.wav]
------------------------------------------------------------
This track looks like CDDA with probability 100%
------------------------------------------------------------
Processing file: [07. Baltimore.wav]
------------------------------------------------------------
This track looks like CDDA with probability 100%
------------------------------------------------------------
Processing file: [08. Sign On The Window.wav]
------------------------------------------------------------
This track looks like CDDA with probability 100%
------------------------------------------------------------
Processing file: [09. Humbug Down On The River.wav]
------------------------------------------------------------
This track looks like CDDA with probability 100%
------------------------------------------------------------
Processing file: [10. Pain.wav]
------------------------------------------------------------
This track looks like CDDA with probability 100%
------------------------------------------------------------
Processing file: [11. I Desire You.wav]
------------------------------------------------------------
This track looks like MPEG with probability 91%
------------------------------------------------------------
Processing file: [12. Stormy Monday.wav]
------------------------------------------------------------
This track looks like CDDA with probability 100%
------------------------------------------------------------
Processing file: [13. Jam.wav]
------------------------------------------------------------
This track looks like CDDA with probability 100%
------------------------------------------------------------
Processing file: [14. Roy's Bluz.wav]
------------------------------------------------------------
This track looks like CDDA with probability 100%
------------------------------------------------------------
Processing file: [15. Shotgun.wav]
------------------------------------------------------------
This track looks like CDDA with probability 100%
------------------------------------------------------------
Processing file: [16. After Hours-The Messiah Will Come Again.wav]
------------------------------------------------------------
This track looks like CDDA with probability 100%
------------------------------------------------------------
Processing file: [17. Sweet Dreams.wav]
------------------------------------------------------------
This track looks like CDDA with probability 99%
------------------------------------------------------------
Final Conclusion:
------------------------------------------------------------
These tracks looks like CDDA with probability 100%
Roy Buchanan: дискография в lossless

To download the file disable ad blocking, and reload the page.

disable adblock How to disable ad blocking?

Download by magnet link 472 MB Download Torrent

Login using:

Загрузка...

Similar topics

(Stoner | Blues Rock ) Royal Sons - Praise & Warships - 2018, MP3, 320 kbps
 109 MB   0 | 0   28-Oct-18 04:30   2


   
Current time is: 16-Dec 17:50 :: All times are UTC + 3