Lightnin' Hopkins - Lightnin' Strikes
Жанр: Texas Blues
Год выпуска диска: 1998
Производитель диска: Charly (CDGR 283), оригинал - VeeJay, 1962 (LP 1044)
Аудио кодек: FLAC
Тип рипа: tracks+.cue
Битрейт аудио: lossless
Продолжительность: 46:42
Сканы: полный комплект
Источник: д-д, спасибо thewall!
Треклист:
01. Got Me A Louisiana Woman (3:02)
02. Want To Come Home (3:57)
03. Please Don't Quit Me (3:13)
04. Devil Is Watching You (4:01)
05. Rolling And Rolling (3:00)
06. War Is Starting Again (3:07)
07. Walkin' Round In Circles (3:10)
08. Mary Lou (2:08)
09. Heavy Snow (2:10)
10. Coon Is Hard To Catch (4:18)
Bonus tracks (rec.1960)
11. Introduction/Big Car Blues (5:09)
12. Coffee House Blues (2:23)
13. Stool Pigeon Blues (3:25)
14. Ball Of Twine (3:41)
Доп. информация:
allMusic | @@@@ - блюз.ру

Техническая информация

В .cue-файле исправлен год с 2003 на тот, что на обложке - 1998.

Отчет EAC

Exact Audio Copy V0.99 prebeta 3 from 28. July 2007
EAC extraction logfile from 26. December 2008, 14:35
Lightnin' Hopkins / Lightnin' Strikes
Used drive : BPN-KM52X16 Adapter: 2 ID: 0
Read mode : Burst
Read offset correction : 6
Overread into Lead-In and Lead-Out : No
Fill up missing offset samples with silence : Yes
Delete leading and trailing silent blocks : No
Null samples used in CRC calculations : No
Used interface : Native Win32 interface for Win NT & 2000
Gap handling : Appended to previous track
Used output format : User Defined Encoder
Selected bitrate : 96 kBit/s
Quality : High
Add ID3 tag : No
Command line compressor : F:\Program Files\Exact Audio Copy\Flac\flac.exe
Additional command line options : -6 -V -T "artist=%a" -T "title=%t" -T "album=%g" -T "date=%y" -T "tracknumber=%n" -T "genre=%m" -T comment="%e" -T "comment=EAC (T&C In Burst Mode)" %s
TOC of the extracted CD
Track | Start | Length | Start sector | End sector
---------------------------------------------------------
1 | 0:00.00 | 3:01.50 | 0 | 13624
2 | 3:01.50 | 3:56.45 | 13625 | 31369
3 | 6:58.20 | 3:12.72 | 31370 | 45841
4 | 10:11.17 | 4:00.58 | 45842 | 63899
5 | 14:12.00 | 3:00.20 | 63900 | 77419
6 | 17:12.20 | 3:07.05 | 77420 | 91449
7 | 20:19.25 | 3:09.55 | 91450 | 105679
8 | 23:29.05 | 2:07.55 | 105680 | 115259
9 | 25:36.60 | 2:10.22 | 115260 | 125031
10 | 27:47.07 | 4:18.10 | 125032 | 144391
11 | 32:05.17 | 5:09.20 | 144392 | 167586
12 | 37:14.37 | 2:22.48 | 167587 | 178284
13 | 39:37.10 | 3:24.55 | 178285 | 193639
14 | 43:01.65 | 3:40.47 | 193640 | 210186
Track 1
Filename J:\Rips\Lightnin' Hopkins - Lightnin' Strikes\01 - Got Me A Louisiana Woman.wav
Pre-gap length 0:00:02.00
Peak level 90.6 %
Test CRC 4E204271
Copy CRC 4E204271
Track not present in AccurateRip database
Copy OK
Track 2
Filename J:\Rips\Lightnin' Hopkins - Lightnin' Strikes\02 - Want To Come Home.wav
Pre-gap length 0:00:02.50
Peak level 88.7 %
Test CRC B94D20A7
Copy CRC B94D20A7
Track not present in AccurateRip database
Copy OK
Track 3
Filename J:\Rips\Lightnin' Hopkins - Lightnin' Strikes\03 - Please Don't Quit Me.wav
Pre-gap length 0:00:02.50
Peak level 91.2 %
Test CRC DDE52E93
Copy CRC DDE52E93
Track not present in AccurateRip database
Copy OK
Track 4
Filename J:\Rips\Lightnin' Hopkins - Lightnin' Strikes\04 - Devil Is Watching You.wav
Pre-gap length 0:00:02.50
Peak level 88.7 %
Test CRC B9A6EBA6
Copy CRC B9A6EBA6
Track not present in AccurateRip database
Copy OK
Track 5
Filename J:\Rips\Lightnin' Hopkins - Lightnin' Strikes\05 - Rolling And Rolling.wav
Pre-gap length 0:00:02.50
Peak level 89.7 %
Test CRC 87F25C1B
Copy CRC 87F25C1B
Track not present in AccurateRip database
Copy OK
Track 6
Filename J:\Rips\Lightnin' Hopkins - Lightnin' Strikes\06 - War Is Starting Again.wav
Pre-gap length 0:00:02.50
Peak level 88.7 %
Test CRC 76885398
Copy CRC 76885398
Track not present in AccurateRip database
Copy OK
Track 7
Filename J:\Rips\Lightnin' Hopkins - Lightnin' Strikes\07 - Walkin' Round In Circles.wav
Pre-gap length 0:00:02.50
Peak level 88.4 %
Test CRC 83D3C9E0
Copy CRC 83D3C9E0
Track not present in AccurateRip database
Copy OK
Track 8
Filename J:\Rips\Lightnin' Hopkins - Lightnin' Strikes\08 - Mary Lou.wav
Pre-gap length 0:00:02.53
Peak level 88.5 %
Test CRC 0AFCBEA3
Copy CRC 0AFCBEA3
Track not present in AccurateRip database
Copy OK
Track 9
Filename J:\Rips\Lightnin' Hopkins - Lightnin' Strikes\09 - Heavy Snow.wav
Pre-gap length 0:00:02.50
Peak level 88.2 %
Test CRC 782A8080
Copy CRC 782A8080
Track not present in AccurateRip database
Copy OK
Track 10
Filename J:\Rips\Lightnin' Hopkins - Lightnin' Strikes\10 - Coon Is Hard To Catch.wav
Pre-gap length 0:00:02.50
Peak level 89.0 %
Test CRC 22778B16
Copy CRC 22778B16
Track not present in AccurateRip database
Copy OK
Track 11
Filename J:\Rips\Lightnin' Hopkins - Lightnin' Strikes\11 - Introduction,Big Car Blues.wav
Pre-gap length 0:00:02.50
Peak level 88.3 %
Test CRC 305B58BD
Copy CRC 305B58BD
Track not present in AccurateRip database
Copy OK
Track 12
Filename J:\Rips\Lightnin' Hopkins - Lightnin' Strikes\12 - Coffee House Blues.wav
Pre-gap length 0:00:02.50
Peak level 88.5 %
Test CRC 80221E75
Copy CRC 80221E75
Track not present in AccurateRip database
Copy OK
Track 13
Filename J:\Rips\Lightnin' Hopkins - Lightnin' Strikes\13 - Stool Pigeon Blues.wav
Pre-gap length 0:00:02.50
Peak level 88.5 %
Test CRC 71E67E33
Copy CRC 71E67E33
Track not present in AccurateRip database
Copy OK
Track 14
Filename J:\Rips\Lightnin' Hopkins - Lightnin' Strikes\14 - Ball Of Twine.wav
Pre-gap length 0:00:02.50
Peak level 88.8 %
Test CRC FAEFFB96
Copy CRC FAEFFB96
Track not present in AccurateRip database
Copy OK
None of the tracks are present in the AccurateRip database
No errors occurred
End of status report

Отчет AccuRip Test (CueTools 1.9.5a)

[Verification date: 26.11.2009 18:20:04]
[Disc ID: 0017dc16-00fdf309-b20af20e]
Track [ CRC ] Status
01 [24aa5982] (00/00) No matches
02 [8468b60a] (02/02) Accurately ripped as in pressing(s) #1
03 [c73977b8] (00/00) No matches
04 [bfe7a2a9] (01/01) Accurately ripped as in pressing(s) #1
05 [01625a5b] (02/02) Accurately ripped as in pressing(s) #1
06 [f3e3033f] (02/02) Accurately ripped as in pressing(s) #1
07 [5d838e7b] (02/02) Accurately ripped as in pressing(s) #1
08 [a3bf9cb9] (02/02) Accurately ripped as in pressing(s) #1
09 [2582af78] (02/02) Accurately ripped as in pressing(s) #1
10 [3d65e874] (02/02) Accurately ripped as in pressing(s) #1
11 [40845d23] (02/02) Accurately ripped as in pressing(s) #1
12 [5efd834a] (00/00) No matches
13 [ed162ac4] (02/02) Accurately ripped as in pressing(s) #1
14 [e6851f18] (02/02) Accurately ripped as in pressing(s) #1
Track [ CRC32 ] [W/O NULL] [ LOG ]
-- [EEBC507A] [70FD0F9F]
01 [56A94562] [4E204271] W/O NULL
02 [AC4FD25C] [B94D20A7] W/O NULL
03 [ED70D60F] [DDE52E93] W/O NULL
04 [D0596C15] [B9A6EBA6] W/O NULL
05 [C988365E] [87F25C1B] W/O NULL
06 [CCD587F2] [76885398] W/O NULL
07 [14EC24C3] [83D3C9E0] W/O NULL
08 [1582A71F] [0AFCBEA3] W/O NULL
09 [6C11A3C2] [782A8080] W/O NULL
10 [35BFB017] [22778B16] W/O NULL
11 [9D2DCE1A] [305B58BD] W/O NULL
12 [BBFAB2A4] [80221E75] W/O NULL
13 [5A7D4DC4] [71E67E33] W/O NULL
14 [52487BBD] [FAEFFB96] W/O NULL

Отчет auCDtect.exe

>auCDtect.exe -m0 -d *.wav
auCDtect: CD records authenticity detector, version 0.8.2
Copyright (c) 2004 Oleg Berngardt. All rights reserved.
Copyright (c) 2004 Alexander Djourik. All rights reserved.
------------------------------------------------------------
Processing file: [01. Got Me A Louisiana Woman.wav]
------------------------------------------------------------
This track looks like CDDA with probability 100%
------------------------------------------------------------
Processing file: [02. Want To Come Home.wav]
------------------------------------------------------------
This track looks like CDDA with probability 100%
------------------------------------------------------------
Processing file: [03. Please Don't Quit Me.wav]
------------------------------------------------------------
This track looks like CDDA with probability 100%
------------------------------------------------------------
Processing file: [04. Devil Is Watching You.wav]
------------------------------------------------------------
This track looks like CDDA with probability 99%
------------------------------------------------------------
Processing file: [05. Rolling And Rolling.wav]
------------------------------------------------------------
This track looks like CDDA with probability 100%
------------------------------------------------------------
Processing file: [06. War Is Starting Again.wav]
------------------------------------------------------------
This track looks like CDDA with probability 99%
------------------------------------------------------------
Processing file: [07. Walkin' Round In Circles.wav]
------------------------------------------------------------
This track looks like CDDA with probability 100%
------------------------------------------------------------
Processing file: [08. Mary Lou.wav]
------------------------------------------------------------
This track looks like CDDA with probability 100%
------------------------------------------------------------
Processing file: [09. Heavy Snow.wav]
------------------------------------------------------------
This track looks like CDDA with probability 99%
------------------------------------------------------------
Processing file: [10. Coon Is Hard To Catch.wav]
------------------------------------------------------------
This track looks like CDDA with probability 99%
------------------------------------------------------------
Processing file: [11. Introduction-Big Car Blues.wav]
------------------------------------------------------------
This track looks like CDDA with probability 100%
------------------------------------------------------------
Processing file: [12. Coffee House Blues.wav]
------------------------------------------------------------
This track looks like CDDA with probability 100%
------------------------------------------------------------
Processing file: [13. Stool Pigeon Blues.wav]
------------------------------------------------------------
This track looks like CDDA with probability 100%
------------------------------------------------------------
Processing file: [14. Ball Of Twine.wav]
------------------------------------------------------------
This track looks like CDDA with probability 99%
------------------------------------------------------------
Final Conclusion:
------------------------------------------------------------
These tracks looks like CDDA with probability 100%
Lightnin' Hopkins - дискография в lossless

To download the file disable ad blocking, and reload the page.

disable adblock How to disable ad blocking?

Download by magnet link 165 MB Download Torrent

Login using:

Загрузка...

Similar topics



   
Current time is: 19-Dec 18:55 :: All times are UTC + 3