Lightnin' Hopkins and the Blues Summit (July 6, 1960)
Жанр: Harp/Acoustic Blues
Год выпуска диска: 2001
Производитель диска: Varese Sarabande
Аудио кодек: FLAC
Тип рипа: tracks
Битрейт аудио: lossless
Продолжительность: 63:25
Сканы: отсутствуют
Источник: спасибо What и автору!
Треклист:
01. Ain't Nothing Like Whiskey (7:58)
02. Penitentiary Blues (6:48)
03. If You Steal My Chickens, You Can't Make 'Em Lay (5:41)
04. First Meeting (7:11)
05. How Long Have It Been Since You Been Home (4:13)
06. Wimmen From Coast to Coast (5:49)
07. Right On That Shore (2:48)
08. Early Morning Blues (aka Chain Gang Blues) (5:15)
09. Blues For Gamblers (6:55)
10. I've Been Buked And I've Been Scorned (5:13)
11. Brand New Car (aka New Car Blues) (5:35)
Участники:
Lightnin' Hopkins;
Brownie McGhee;
Sonny Terry;
Big Joe Williams
Доп. информация:
такой состав не может играть плохо!
***** - allMusic.com
Абсолютная классика! - bluesnews.ru
Amazon.com
Техническая информацияНет лога EAC, .cue-файла

Отчет AccuRip Test (CueTools 1.9.5a)

[Verification date: 25.11.2009 06:54:19]
[Disc ID: 001b7bb2-00e8f55d-a60edc0b]
Track [ CRC ] Status
01 [cac4c421] (00/02) No matches
02 [296a0278] (00/02) No matches
03 [9a73dcc6] (00/02) No matches
04 [0b28da2c] (00/02) No matches
05 [5f0887ea] (00/02) No matches
06 [0b18de33] (00/02) No matches
07 [9842036c] (00/02) No matches
08 [68c80986] (00/02) No matches
09 [77708cdf] (00/02) No matches
10 [91936e32] (00/02) No matches
11 [59472d97] (00/02) No matches
Offsetted by 102:
01 [41a9234b] (02/02) Accurately ripped as in pressing(s) #1
02 [eecf5782] (02/02) Accurately ripped as in pressing(s) #1
03 [a2978e73] (02/02) Accurately ripped as in pressing(s) #1
04 [b8697213] (02/02) Accurately ripped as in pressing(s) #1
05 [abbe9753] (02/02) Accurately ripped as in pressing(s) #1
06 [74ccbd2e] (02/02) Accurately ripped as in pressing(s) #1
07 [2224d358] (02/02) Accurately ripped as in pressing(s) #1
08 [4b87af62] (02/02) Accurately ripped as in pressing(s) #1
09 [4bf6cae4] (02/02) Accurately ripped as in pressing(s) #1
10 [65887bc0] (02/02) Accurately ripped as in pressing(s) #1
11 [e307594a] (02/02) Accurately ripped as in pressing(s) #1
Track [ CRC32 ] [W/O NULL]
-- [8EEB75A7] [980CD61D]
01 [E4BE1E62] [AE176CAA]
02 [25D2073D] [0B614844]
03 [040E3C51] [6B802EB5]
04 [7E827D66] [E58C99CB]
05 [6A7CFC91] [5DDB8399]
06 [358AEE80] [49D4AAA9]
07 [3416835E] [EBD702A9]
08 [2AC6EDEB] [D65E99BA]
09 [6B59100A] [E2A2E507]
10 [93307682] [4555AF17]
11 [6993D613] [F03748F2]

Отчет auCDtect.exe

>auCDtect.exe -m0 -d *.wav
auCDtect: CD records authenticity detector, version 0.8.2
Copyright (c) 2004 Oleg Berngardt. All rights reserved.
Copyright (c) 2004 Alexander Djourik. All rights reserved.
------------------------------------------------------------
Processing file: [01. Ain't Nothing Like Whiskey.wav]
------------------------------------------------------------
This track looks like CDDA with probability 100%
------------------------------------------------------------
Processing file: [02. Penitentiary Blues.wav]
------------------------------------------------------------
This track looks like CDDA with probability 100%
------------------------------------------------------------
Processing file: [03. If You Steal My Chickens, You Can't Make 'Em Lay.wav]
------------------------------------------------------------
This track looks like CDDA with probability 100%
------------------------------------------------------------
Processing file: [04. First Meeting.wav]
------------------------------------------------------------
This track looks like CDDA with probability 100%
------------------------------------------------------------
Processing file: [05. How Long Have It Been Since You Been Home.wav]
------------------------------------------------------------
This track looks like CDDA with probability 100%
------------------------------------------------------------
Processing file: [06. Wimmen From Coast to Coast.wav]
------------------------------------------------------------
This track looks like CDDA with probability 100%
------------------------------------------------------------
Processing file: [07. Right On That Shore.wav]
------------------------------------------------------------
This track looks like CDDA with probability 100%
------------------------------------------------------------
Processing file: [08. Early Morning Blues (aka Chain Gang Blues).wav]
------------------------------------------------------------
This track looks like CDDA with probability 100%
------------------------------------------------------------
Processing file: [09. Blues For Gamblers.wav]
------------------------------------------------------------
This track looks like CDDA with probability 100%
------------------------------------------------------------
Processing file: [10. I've Been Buked And I've Been Scorned.wav]
------------------------------------------------------------
This track looks like CDDA with probability 100%
------------------------------------------------------------
Processing file: [11. Brand New Car (aka New Car Blues).wav]
------------------------------------------------------------
This track looks like CDDA with probability 100%
------------------------------------------------------------
Final Conclusion:
------------------------------------------------------------
These tracks looks like CDDA with probability 100%
Lightnin' Hopkins - дискография в lossless

Для скачивания файла отключите блокировку рекламы и перезагрузите страницу.

disable adblock Как отключить блокировку рекламы?

Скачать по магнет ссылке 366 MB 

Войти с помощью:

Загрузка...
Загрузка...


   
Текущее время: 18-Июн 13:30 :: Часовой пояс: UTC ± 0