Lightnin' Hopkins - Lightnin' Hopkins
Жанр: Acoustic Texas Blues
Год выпуска диска: 1990 (оригинал 1959)
Производитель диска: Smithsonian/Folkways Recordings (45019)
Аудио кодек: FLAC
Тип рипа: tracks+.cue
Битрейт аудио: lossless
Продолжительность: 32:13
Сканы: по подсказке 19.26 обнаружились коврики в сети: front, pdf
Источник: благодарности автору и what!

треклист

01. Penitentiary Blues (2:55)
02. Bad Luck And Trouble (3:49)
03. Come Go Home With Me (3:56)
04. Trouble Stay 'Way from My Door (4:10)
05. See That My Grave Is Kept Clean (2:10)
06. Goin' Back to Florida (3:13)
07. Reminiscenses of Blind Lemon (2:17)
08. Fan It (2:47)
09. Tell Me Baby (2:36)
10. She's Mine (4:18)
Участники:
Lightnin' Hopkins - Guitar, Vocals;
Samuel B. Charters - Producer.
Доп. информация:
Оригинальное издание под названием "The Roots of Lightnin' Hopkins" (Smithsonian/Folkways) было записано в 1959.
Выпуск этого альбома был основой возрождения интереса к блюзу и помог повторно зажечь интерес к Hopkins'у.
До записи этого альбома, блюзмен пропал из вида... Но после продолжительных поисков Sam Charters нашел Hopkins'а
в арендованной однокомнатой квартире в Хьюстоне. С помощью бутылки джина он убедил Сэма сделать запись десяти
песен прямо в комнате, используя микрофон. Получившийся альбом стал одним из лучших у Хопкинса. В песнях
обнажено его одиночество и преследовавшее отчаяние. Эти записи, возможно, лучше других отразили натуру
Хопкинса и, несомненно, стали одним из столпов возрождения интереса к блюзу в 50х -60х.
(мой посильный перевод с AMG, © blues_man)
Променяю этот рип на Ваш с обложками несмотря на правильные логи
Техническая информация
Отчет Rubyripper
This log is created by Rubyripper, version 0.5.4
Website: http://code.google.com/p/rubyripper
Cdrom player used to rip:
LITE-ON DVDRW LH-20A1P KL05
Cdrom offset used: 6
Ripper used: cdparanoia
Matches required for all chunks: 2
Matches required for erroneous chunks: 3
Codec(s) used:
-flac -> --best -V -replay-gain -T "title=" -T "artist=" -T "album=" -T "tracknumber=" -T "date=" -T "genre=" (flac 1.2.1)
-mp3 -> -V 0 --vbr-new --add-id3v2 --pad-id3v2 --ta "%a" --tt "%t" --tl "%g" --ty "%y" --tn "%n"
(LAME 32bits version 3.98 (http://www.mp3dev.org/)
CDDB INFO
Artist = Lightnin' Hopkins
Album = Lightnin' Hopkins
Year = 1959
Genre = Blues
Tracks = 10
01 - Penitentiary Blues
02 - Bad Luck And Trouble
03 - Come Go Home With Me
04 - Trouble Stay 'Way from My Door
05 - See That My Grave Is Kept Clean
06 - Goin' Back to Florida
07 - Reminiscenses of Blind Lemon
08 - Fan It
09 - Tell Me Baby
10 - She's Mine
STATUS
Starting to rip track 1, trial #1
Starting to rip track 1, trial #2
Analyzing files for mismatching chunks
Every chunk matched 2 times
MD5 sum: 8c1d23ae5a0093e316e997050055e22f
Starting to rip track 2, trial #1
Starting to rip track 2, trial #2
Analyzing files for mismatching chunks
Every chunk matched 2 times
MD5 sum: 33ee17a28504209e9fa3640ef6e8ca44
Starting to rip track 3, trial #1
Starting to rip track 3, trial #2
Analyzing files for mismatching chunks
Every chunk matched 2 times
MD5 sum: ca22046a32f11b5c36521d3c1976d80b
Starting to rip track 4, trial #1
Starting to rip track 4, trial #2
Analyzing files for mismatching chunks
Every chunk matched 2 times
MD5 sum: 60ea9bfddc7d03b0156d5654b2b2d317
Starting to rip track 5, trial #1
Starting to rip track 5, trial #2
Analyzing files for mismatching chunks
Every chunk matched 2 times
MD5 sum: fd3032e2e12ae13dfd6961ca744771b2
Starting to rip track 6, trial #1
Starting to rip track 6, trial #2
Analyzing files for mismatching chunks
Every chunk matched 2 times
MD5 sum: db0325ccda0f09de015f2040b9f3f40c
Starting to rip track 7, trial #1
Starting to rip track 7, trial #2
Analyzing files for mismatching chunks
Every chunk matched 2 times
MD5 sum: 91db5c55b824cd7d0b79d75e919a0bee
Starting to rip track 8, trial #1
Starting to rip track 8, trial #2
Analyzing files for mismatching chunks
Every chunk matched 2 times
MD5 sum: 4e092f52167f698ef7225e5af6a5cd87
Starting to rip track 9, trial #1
Starting to rip track 9, trial #2
Analyzing files for mismatching chunks
Every chunk matched 2 times
MD5 sum: 95ebbd3e83bae84dc4012690873ce552
Starting to rip track 10, trial #1
Starting to rip track 10, trial #2
Analyzing files for mismatching chunks
Every chunk matched 2 times
MD5 sum: d6343a9ab2a57266a1006cd44a05c0ab
RIPPING SUMMARY
All chunks were tried to match at least 2 times.
Chunks that differed after 2 trials,
were tried to match 3 times.
None of the tracks gave any problems

Отчет AccuRip Test (CueTools 1.9.5a)

[Verification date: 24.11.2009 23:54:29]
[Disc ID: 000c63d9-00621596-74078d0a]
Pregap length 00:00:25.
Track [ CRC ] Status
01 [a5594382] (06/09) Accurately ripped as in pressing(s) #1
02 [7f8f557a] (06/09) Accurately ripped as in pressing(s) #1
03 [ae419308] (07/10) Accurately ripped as in pressing(s) #1
04 [4aa288fa] (06/09) Accurately ripped as in pressing(s) #1
05 [87c6dec4] (07/10) Accurately ripped as in pressing(s) #1
06 [78edab2c] (07/10) Accurately ripped as in pressing(s) #1
07 [7972c1db] (07/10) Accurately ripped as in pressing(s) #1
08 [779c2923] (07/10) Accurately ripped as in pressing(s) #1
09 [ad19d1c3] (06/09) Accurately ripped as in pressing(s) #1
10 [aff37ad5] (06/09) Accurately ripped as in pressing(s) #1
Offsetted by 119:
01 [d8c1f364] (03/09) Accurately ripped as in pressing(s) #2
02 [d64454d9] (03/09) Accurately ripped as in pressing(s) #2
03 [911e429d] (03/10) Accurately ripped as in pressing(s) #2
04 [8f881305] (03/09) Accurately ripped as in pressing(s) #2
05 [156fde92] (03/10) Accurately ripped as in pressing(s) #2
06 [c9bf3807] (03/10) Accurately ripped as in pressing(s) #2
07 [075e90bd] (03/10) Accurately ripped as in pressing(s) #2
08 [68f99b17] (03/10) Accurately ripped as in pressing(s) #2
09 [d61ce2d7] (03/09) Accurately ripped as in pressing(s) #2
10 [c886cec6] (03/09) Accurately ripped as in pressing(s) #2
Track [ CRC32 ] [W/O NULL]
-- [CD0199CC] [7F7022B9]
01 [683C2032] [DB21FDB9]
02 [CBBE5380] [1BFA95AD]
03 [F8267CDF] [B5BB8DC6]
04 [98481FCB] [FA0D3604]
05 [F7315EAD] [D5D8B360]
06 [09DDE72D] [E660D003]
07 [28EA6B3D] [D8A34CD4]
08 [BBB40FFA] [9C26E3D7]
09 [4EE3325D] [11D18667]
10 [D664E9F8] [804C3797]

Отчет auCDtect.exe

>auCDtect.exe -m0 -d *.wav
auCDtect: CD records authenticity detector, version 0.8.2
Copyright (c) 2004 Oleg Berngardt. All rights reserved.
Copyright (c) 2004 Alexander Djourik. All rights reserved.
------------------------------------------------------------
Processing file: [01. Penitentiary Blues.wav]
------------------------------------------------------------
This track looks like CDDA with probability 100%
------------------------------------------------------------
Processing file: [02. Bad Luck And Trouble.wav]
------------------------------------------------------------
This track looks like CDDA with probability 100%
------------------------------------------------------------
Processing file: [03. Come Go Home With Me.wav]
------------------------------------------------------------
This track looks like CDDA with probability 100%
------------------------------------------------------------
Processing file: [04. Trouble Stay 'Way from My Door.wav]
------------------------------------------------------------
This track looks like CDDA with probability 100%
------------------------------------------------------------
Processing file: [05. See That My Grave Is Kept Clean.wav]
------------------------------------------------------------
This track looks like CDDA with probability 100%
------------------------------------------------------------
Processing file: [06. Goin' Back to Florida.wav]
------------------------------------------------------------
This track looks like CDDA with probability 100%
------------------------------------------------------------
Processing file: [07. Reminiscenses of Blind Lemon.wav]
------------------------------------------------------------
This track looks like CDDA with probability 100%
------------------------------------------------------------
Processing file: [08. Fan It.wav]
------------------------------------------------------------
This track looks like CDDA with probability 100%
------------------------------------------------------------
Processing file: [09. Tell Me Baby.wav]
------------------------------------------------------------
This track looks like CDDA with probability 100%
------------------------------------------------------------
Processing file: [10. She's Mine.wav]
------------------------------------------------------------
This track looks like CDDA with probability 100%
------------------------------------------------------------
Final Conclusion:
------------------------------------------------------------
These tracks looks like CDDA with probability 100%
Lightnin' Hopkins - дискография в lossless

Для скачивания файла отключите блокировку рекламы и перезагрузите страницу.

disable adblock Как отключить блокировку рекламы?

Скачать по магнет ссылке 112 MB 

Войти с помощью:

Загрузка...
Загрузка...


   
Текущее время: 18-Июн 13:19 :: Часовой пояс: UTC ± 0