Levon Helm - Levon Helm (1978) Жанр: Roots Rock, Blues
Носитель: CD
Год издания: 2002
Издатель (лейбл): Acadia/Evangeline/Universal
Номер по каталогу: ACA 8037
Аудиокодек: FLAC (*.flac)
Тип рипа: tracks+.cue
Битрейт аудио: lossless
Продолжительность: 35:23
Источник (релизер): другой трекер
Наличие сканов в содержимом раздачи: да
Треклист:
01. Ain't No Way To Forget You (3:24)
02. Driving At Night (2:44)
03. Play Something Sweet (4:26)
04. Sweet Johanna (3:39)
05. I Came Here To Party (4:00)
06. Take Me To The River (4:01)
07. Standing On A Mountaintop (4:11)
08. Let's Do It In Slow Motion (4:34)
09. Audience For My Pain (4:24)
 

Состав

Drums, Vocals Levon Helm
Drums, Percussion Willie Hall
Drums Roger Hawkins
Guitar, Percussion Steve Cropper
Keyboards Barry Beckett
Keyboards Randy McCormick
Guitar Dan Ferguson
Guitar Larry Byrom
Guitar Jimmy Johnson
Bass Scott Edwards
Bass David Hood
Arrangements (Brass), Trombone Tom Malone
Saxophone Lou Marini
Trumpet Alan Robin
Saxophone Lou Del Gatto
Saxophone Howard Johnson
Vocals Ernie Cate
Vocals Earl Cate
Vocals Mary Berry

AllMusic Review by Steve Leggett

Levon Helm's second solo album isn't a bad listen, it just seems, given its pedigree, that it should be a good deal better than it is. Produced by Donald "Duck" Dunn of the legendary Booker T. & the MG's, and featuring Steve Cropper and the Muscle Shoals session crew, this outing ought to cook with some serious funk and soul, and that it only occasionally does so is the big surprise. Helm's Arkansas drawl gives his singing an authentic sounding expressiveness, but somehow nothing here has the easy, natural sounding ring that was the trademark of his best work with the Band. Not that there aren't solid tracks here. Covers of Allen Toussaint's "Play Something Sweet," Tony Joe White's "I Came Here to Party," and the Cate Brothers tune, "Standing on a Mountain Top" (which boasts Earl and Ernie Cate on harmony vocals), all have wonderful horn charts and soulful approaches. But something intangible is missing, as if these tunes simply sound like they have soul without actually possessing it. True, Helm's version of Al Green's "Take Me to the River" brightens things up here, but the song is so good and durable that not even a Muppet could blow it as long as the arrangement is followed. It's interesting that Dunn himself doesn't play bass on this album. Maybe that's what's missing. Again, this isn't a bad album, just a surprisingly lifeless one, given the talent involved.
-

Лог создания рипа

Exact Audio Copy V1.1 from 23. June 2015
EAC extraction logfile from 4. September 2016, 20:35
Levon Helm / Levon Helm
Used drive : MATSHITADVD+-RW SW830 Adapter: 1 ID: 0
Read mode : Secure
Utilize accurate stream : Yes
Defeat audio cache : Yes
Make use of C2 pointers : No
Read offset correction : 6
Overread into Lead-In and Lead-Out : No
Fill up missing offset samples with silence : Yes
Delete leading and trailing silent blocks : No
Null samples used in CRC calculations : Yes
Used interface : Native Win32 interface for Win NT & 2000
Gap handling : Appended to previous track
Used output format : User Defined Encoder
Selected bitrate : 896 kBit/s
Quality : High
Add ID3 tag : No
Command line compressor : C:\Program Files (x86)\Exact Audio Copy\Flac\flac.exe
Additional command line options : -8 -V -T "ARTIST=%artist%" -T "TITLE=%title%" -T "ALBUM=%albumtitle%" -T "DATE=%year%" -T "TRACKNUMBER=%tracknr%" -T "TOTALTRACKS=%numtracks%" -T "GENRE=%genre%" -T "ALBUMARTIST=%albumartist%" -T "ALBUM ARTIST=%albumartist%" -T "COMMENT=EAC Secure Mode, Test & Copy, AccurateRip, FLAC -8" %source%
TOC of the extracted CD
Track | Start | Length | Start sector | End sector
---------------------------------------------------------
1 | 0:00.00 | 3:23.71 | 0 | 15295
2 | 3:23.71 | 2:43.43 | 15296 | 27563
3 | 6:07.39 | 4:26.09 | 27564 | 47522
4 | 10:33.48 | 3:39.36 | 47523 | 63983
5 | 14:13.09 | 3:59.55 | 63984 | 81963
6 | 18:12.64 | 4:00.56 | 81964 | 100019
7 | 22:13.45 | 4:11.24 | 100020 | 118868
8 | 26:24.69 | 4:33.38 | 118869 | 139381
9 | 30:58.32 | 4:24.36 | 139382 | 159217
Track 1
Filename G:\New Rips\Levon Helm - Levon Helm (1978) [FLAC]\01 - Ain't No Way To Forget You.wav
Pre-gap length 0:00:02.00
Peak level 100.0 %
Extraction speed 1.7 X
Track quality 100.0 %
Test CRC 6B82CC7F
Copy CRC 6B82CC7F
Accurately ripped (confidence 3) [4EC98B0A] (AR v2)
Copy OK
Track 2
Filename G:\New Rips\Levon Helm - Levon Helm (1978) [FLAC]\02 - Driving At Night.wav
Pre-gap length 0:00:01.38
Peak level 100.0 %
Extraction speed 1.8 X
Track quality 100.0 %
Test CRC DFC6B1D4
Copy CRC DFC6B1D4
Accurately ripped (confidence 3) [E8774576] (AR v2)
Copy OK
Track 3
Filename G:\New Rips\Levon Helm - Levon Helm (1978) [FLAC]\03 - Play Something Sweet.wav
Pre-gap length 0:00:01.16
Peak level 100.0 %
Extraction speed 2.1 X
Track quality 100.0 %
Test CRC 0EAF3257
Copy CRC 0EAF3257
Accurately ripped (confidence 3) [9F9F5EBE] (AR v2)
Copy OK
Track 4
Filename G:\New Rips\Levon Helm - Levon Helm (1978) [FLAC]\04 - Sweet Johanna.wav
Pre-gap length 0:00:01.50
Peak level 100.0 %
Extraction speed 1.7 X
Track quality 99.9 %
Test CRC CF86E225
Copy CRC CF86E225
Accurately ripped (confidence 3) [F15374EE] (AR v2)
Copy OK
Track 5
Filename G:\New Rips\Levon Helm - Levon Helm (1978) [FLAC]\05 - I Came Here To Party.wav
Pre-gap length 0:00:02.05
Peak level 100.0 %
Extraction speed 2.4 X
Track quality 100.0 %
Test CRC E508AEF8
Copy CRC E508AEF8
Accurately ripped (confidence 3) [1E820062] (AR v2)
Copy OK
Track 6
Filename G:\New Rips\Levon Helm - Levon Helm (1978) [FLAC]\06 - Take Me To The River.wav
Pre-gap length 0:00:01.26
Peak level 100.0 %
Extraction speed 2.6 X
Track quality 100.0 %
Test CRC F80E67E0
Copy CRC F80E67E0
Accurately ripped (confidence 3) [4C0D53D1] (AR v2)
Copy OK
Track 7
Filename G:\New Rips\Levon Helm - Levon Helm (1978) [FLAC]\07 - Standing On A Mountaintop.wav
Pre-gap length 0:00:01.11
Peak level 100.0 %
Extraction speed 2.1 X
Track quality 99.9 %
Test CRC 50A6C5A7
Copy CRC 50A6C5A7
Accurately ripped (confidence 3) [FE987B4A] (AR v2)
Copy OK
Track 8
Filename G:\New Rips\Levon Helm - Levon Helm (1978) [FLAC]\08 - Let's Do It In Slow Motion.wav
Pre-gap length 0:00:01.25
Peak level 100.0 %
Extraction speed 2.9 X
Track quality 100.0 %
Test CRC DC66BED8
Copy CRC DC66BED8
Accurately ripped (confidence 3) [4F27B789] (AR v2)
Copy OK
Track 9
Filename G:\New Rips\Levon Helm - Levon Helm (1978) [FLAC]\09 - Audience For My Pain.wav
Pre-gap length 0:00:01.18
Peak level 100.0 %
Extraction speed 3.0 X
Track quality 100.0 %
Test CRC 37E8EB93
Copy CRC 37E8EB93
Accurately ripped (confidence 3) [206F029A] (AR v2)
Copy OK
All tracks accurately ripped
No errors occurred
End of status report
---- CUETools DB Plugin V2.1.6
[CTDB TOCID: gfmmpMUE1a0EopJw8y1y6qpcXgE-] found
Submit result: gfmmpMUE1a0EopJw8y1y6qpcXgE- has been confirmed
Track | CTDB Status
1 | (1/1) Accurately ripped
2 | (1/1) Accurately ripped
3 | (1/1) Accurately ripped
4 | (1/1) Accurately ripped
5 | (1/1) Accurately ripped
6 | (1/1) Accurately ripped
7 | (1/1) Accurately ripped
8 | (1/1) Accurately ripped
9 | (1/1) Accurately ripped
==== Log checksum EB31436227B7AB76FFEB9C76AC15513C8A0E416FA1FEA4541D1B78792D203D12 ====

Содержание индексной карты (.CUE)

REM GENRE Rock
REM DATE 1978
REM DISCID 78084A09
REM COMMENT "ExactAudioCopy v1.1"
PERFORMER "Levon Helm"
TITLE "Levon Helm"
FILE "01 - Ain't No Way To Forget You.wav" WAVE
TRACK 01 AUDIO
TITLE "Ain't No Way To Forget You"
PERFORMER "Levon Helm"
INDEX 01 00:00:00
FILE "02 - Driving At Night.wav" WAVE
TRACK 02 AUDIO
TITLE "Driving At Night"
PERFORMER "Levon Helm"
PREGAP 00:01:38
INDEX 01 00:00:00
FILE "03 - Play Something Sweet.wav" WAVE
TRACK 03 AUDIO
TITLE "Play Something Sweet"
PERFORMER "Levon Helm"
PREGAP 00:01:16
INDEX 01 00:00:00
FILE "04 - Sweet Johanna.wav" WAVE
TRACK 04 AUDIO
TITLE "Sweet Johanna"
PERFORMER "Levon Helm"
PREGAP 00:01:50
INDEX 01 00:00:00
FILE "05 - I Came Here To Party.wav" WAVE
TRACK 05 AUDIO
TITLE "I Came Here To Party"
PERFORMER "Levon Helm"
PREGAP 00:02:05
INDEX 01 00:00:00
FILE "06 - Take Me To The River.wav" WAVE
TRACK 06 AUDIO
TITLE "Take Me To The River"
PERFORMER "Levon Helm"
PREGAP 00:01:26
INDEX 01 00:00:00
FILE "07 - Standing On A Mountaintop.wav" WAVE
TRACK 07 AUDIO
TITLE "Standing On A Mountaintop"
PERFORMER "Levon Helm"
PREGAP 00:01:11
INDEX 01 00:00:00
FILE "08 - Let's Do It In Slow Motion.wav" WAVE
TRACK 08 AUDIO
TITLE "Let's Do It In Slow Motion"
PERFORMER "Levon Helm"
PREGAP 00:01:25
INDEX 01 00:00:00
FILE "09 - Audience For My Pain.wav" WAVE
TRACK 09 AUDIO
TITLE "Audience For My Pain"
PERFORMER "Levon Helm"
PREGAP 00:01:18
INDEX 01 00:00:00

Для скачивания файла отключите блокировку рекламы и перезагрузите страницу.

disable adblock Как отключить блокировку рекламы?

Скачать по магнет ссылке 251 MB 

Войти с помощью:

Похожие раздачи

Внимание! Контент 18+ если вы младше данного возраста, НЕ переходите по ссылке!!!


   
Текущее время: 15-Авг 12:49 :: Часовой пояс: UTC ± 0