Little Miss Higgins - My Home, My Heart
Жанр: Contemporary Blues
Год издания диска: 2017
Носитель: WEB
Издатель (лейбл): Morning Noise Records
Страна: Canada
Аудиокодек: FLAC (*.flac)
Тип рипа: tracks
Битрейт аудио: lossless
Продолжительность: 00:41:46
Источник (релизер): 7digital.com
Наличие сканов в содержимом раздачи: нет
Треклист:
01. Put The Needle On 03:40
02. Drawn To You 04:36
03. Swept Away 04:39
04.
03:29
05. ABC Blues 03:29
06. Belly Full Of Baby 02:00
07. Cow Cow Boogie 03:45
08. Top Of The Mountain 03:45
09. Little Joe's Lullaby 03:12
10. Full Contact Sport 02:55
11. Radville (Revisited) 06:16

Лог проверки качества

-----------------------
DON'T MODIFY THIS FILE
-----------------------
PERFORMER: auCDtect Task Manager, ver. 1.6.0 RC1 build 1.6.0.1
Copyright (c) 2008-2010 y-soft. All rights reserved
http://y-soft.org
ANALYZER: auCDtect: CD records authenticity detector, version 0.8.2
Copyright (c) 2004 Oleg Berngardt. All rights reserved.
Copyright (c) 2004 Alexander Djourik. All rights reserved.
FILE: 11 - Radville.flac
Size: 40315431 Hash: A76F9EC24D00AE24F7ECCF19DDEB9973 Accuracy: -m0
Conclusion: CDDA 99%
Signature: 7EA28DFA3E1628EA43B86C1577E8B97CE37EF7F6
FILE: 10 - Full Contact Sport.flac
Size: 18965286 Hash: 9444B91D64EFA2C5660B470E5FEE899E Accuracy: -m0
Conclusion: CDDA 100%
Signature: AEC58982462A1271C64C9C0F164C8B7680FD8348
FILE: 09 - Little Joe's Lullaby.flac
Size: 18215395 Hash: 2E01689FFD181986545DA341D78AA38F Accuracy: -m0
Conclusion: CDDA 100%
Signature: 02AC5ED4E95483FA1A9866536739951BBD3E6BB6
FILE: 08 - Top Of The Mountain.flac
Size: 19513769 Hash: 1F586DEA5F10FE375C4899F1FAE1D093 Accuracy: -m0
Conclusion: CDDA 99%
Signature: 25033ADA39201697FB3BB58E141EC64162994B05
FILE: 07 - Cow Cow Boogie.flac
Size: 26239423 Hash: 331EAF07218DA16E27C460D6F632CD07 Accuracy: -m0
Conclusion: CDDA 100%
Signature: 6856FA0A0CC5A3881C9F1FF4C9468D321CA78253
FILE: 06 - Belly Full Of Baby.flac
Size: 13760877 Hash: 24A33D20F7DAEE6AC04375B14F762C27 Accuracy: -m0
Conclusion: CDDA 100%
Signature: D723637A2E5C449F9798629218D898F2EE5E55AC
FILE: 05 - ABC Blues.flac
Size: 24900035 Hash: D2CB2BDBFED356B363281AABE6915CF5 Accuracy: -m0
Conclusion: CDDA 100%
Signature: B833605C62F30AC957AF3C28C4F8A6498211691B
FILE: 04 - My Home My Heart.flac
Size: 20787337 Hash: FCDF84E11AA1199D8266A40FD35C9750 Accuracy: -m0
Conclusion: CDDA 100%
Signature: 1CC917578594B1A0D33A895963248E5FB4759D63
FILE: 03 - Swept Away.flac
Size: 29796639 Hash: 47B59F8DAF7B0DDE537CCC51450254C4 Accuracy: -m0
Conclusion: CDDA 100%
Signature: 380C3D054C4BD68C833BB17999C7975C27DFC493
FILE: 02 - Drawn To You.flac
Size: 30245246 Hash: D5EDB7771B5095D03BEC6633403E9F7A Accuracy: -m0
Conclusion: CDDA 100%
Signature: DEB8DE0ECE9D6C7ECACFAA74089F67068EAAB1D1
FILE: 01 - Put The Needle On.flac
Size: 24144913 Hash: A837DEAC30957496B0864B561656F9F7 Accuracy: -m0
Conclusion: CDDA 99%
Signature: 01C9A8DE6B0A1B599AFD73815DEB8975FC16B0D6

Замер динамического диапазона

foobar2000 1.3.9 / Замер динамического диапазона (DR) 1.1.1
Дата отчёта: 2017-10-09 20:19:33
--------------------------------------------------------------------------------
Анализ: Little Miss Higgins / My Home, My Heart
--------------------------------------------------------------------------------
DR Пики RMS Продолжительность трека
--------------------------------------------------------------------------------
DR7 -1.12 дБ -9.79 дБ 3:40 1-Put The Needle On
DR10 -1.12 дБ -13.40 дБ 4:36 2-Drawn To You
DR8 -1.12 дБ -11.20 дБ 4:39 3-Swept Away
DR7 -1.12 дБ -11.23 дБ 3:29 4-My Home, My Heart
DR8 -1.12 дБ -10.73 дБ 3:29 5-ABC Blues
DR8 -1.12 дБ -10.26 дБ 2:00 6-Belly Full Of Baby
DR9 -1.12 дБ -11.34 дБ 3:45 7-Cow Cow Boogie
DR11 -1.12 дБ -14.39 дБ 3:45 8-Top Of The Mountain
DR10 -1.12 дБ -13.53 дБ 3:12 9-Little Joe's Lullaby
DR8 -1.12 дБ -11.43 дБ 2:55 10-Full Contact Sport
DR8 -1.12 дБ -11.03 дБ 6:16 11-Radville (Revisited)
--------------------------------------------------------------------------------
Количество треков: 11
Реальные значения DR: DR9
Частота: 44100 Гц
Каналов: 2
Разрядность: 16
Битрейт: 854 кбит/с
Кодек: FLAC
================================================================================
Доп. информация

Об исполнителе

From the Great Northern Plains, Little Miss Higgins struts and serenades her way onto any stage playing music brewed up in early country blues, jazz and folk. For over 15 years, she has performed, toured, collaborated, recorded and released 5 independent albums. Her music has won three Western Canadian Music Awards and received JUNO and Maple Blues Awards nominations. Now, along with motherhood, Higgins has the newest addition to her list of accomplishments, My Home, My Heart.
Recorded at The Song Shop in Winnipeg, Manitoba, MY HOME, MY HEART is a collection of fresh songs from a unique artist, who remains true to her roots, but has ventured into new territory. Her voice has never been richer or songwriting riper, and the crew of Winnipeg musicians Higgins has brought together on this musical steam ship shines with talent. Co-produced with Scott Nolan and engineered by Jamie Sitar of Outta Town Sound, this album is an effortless addition to this artist’s impressive body of work. To top it all off, her hand-drawn ink artwork is used for the album cover design.
Little Miss Higgins (aka Jolene Higgins) was born in Brooks, Alberta, and raised in Independence, Kansas. Music entered her life early. “When I was about four my dad brought home an old mini-grand piano and told me it was mine. I carved my name in the side of it and then I had to start taking piano lessons.”
Higgins now uses guitar and voice as her main instruments as well as her theatre background to bring a refreshing sound and story to the stage. Higgins settled in Saskatchewan from 2002-2013 and that’s when music took the driver’s seat. Over that time she built her career touring across Canada performing in clubs, theatres and festivals.
http://www.killbeatmusic.com/littlemisshiggins/

Для скачивания файла отключите блокировку рекламы и перезагрузите страницу.

disable adblock Как отключить блокировку рекламы?

Скачать по магнет ссылке 255 MB 

Войти с помощью:

Загрузка...
Загрузка...


   
Текущее время: 18-Июн 13:13 :: Часовой пояс: UTC ± 0