Clarence “Gatemouth” Brown
Gate Walks To Board: 1947-1960 Aladdin & Peacock Sides
Жанр: Blues
Носитель: CD
Год издания: 2015
Издатель (лейбл): Hoodoo Records
Номер по каталогу: 263524
Аудиокодек: FLAC (*.flac)
Тип рипа: tracks+.cue
Битрейт аудио: lossless
Продолжительность: 78:42
Источник (релизер): другой трекер
Наличие сканов в содержимом раздачи: да
Треклист:
01. Midnight Hour (2:47)
02. That's Your Daddy Yaddy Yo (2:44)
03. Good Looking Woman (2:37)
04. Hurry Back Good News (2:46)
05. Gate's Salty Blues (2:44)
06. Okie Dokie Stomp (2:34)
07. Ain't That Dandy (2:52)
08. Dirty Work At The Crossroads (2:47)
09. Just Before Dawn (2:09)
10. Depression Blues (2:55)
11. For Now So Long (2:47)
12. Gate Walks To Board (2:31)
13. You Got Money (2:30)
14. Please Tell Me Baby (2:47)
15. Boogie Uproar (2:44)16. Baby Take It Easy (2:34)
17. She Winked Her Eye (2:55)
18. Win With Me, Baby (2:57)
19. Taking My Chances (2:48)
20. My Time Is Expensive (2:48)
21. Pale Dry Boogie (pt. 1) (2:51)
22. Pale Dry Boogie (pt. 2) (2:54)
23. Boogie Rambler (2:49)
24. I Live My Life (2:39)
25. Guitar In My Hand (2:45)
26. Without Me Baby (2:32)
27. Mary Is Fine (2:40)
28. Too Late Baby (2:36)
29. She Walks Right In (2:44)
 
 

Состав

CLARENCE “GATEMOUTH” BROWN, lead vocals, electric guitar, harmonica, and fiddle, plus:
Johnny Parker (b), Jimmy McCracklin, Paul Monday (p), Duke Barker (d),
Maxwell Davis, Bill Harvey (ts), Jack McVea (as), Fred Ford (bs), Pluma Davis (tb), among others.
Recorded in California and Texas, between 1947 and 1959.

Об альбоме (сборнике)

This special collector's edition contains 29 remastered recordings by Clarence “Gatemouth” Brown, consisting of a selection of the magnicent early sides released between 1947 and 1960 on the Peacock and Aladdin record labels. Several of his most famous songs and enduring singles are featured on this quintessential CD, including “Dirty Work at the Crossroads,” “Midnight Hour,” “Just Before Dawn,” and “Okie Dokie Stomp,” among others. It is truly an indispensable set for any blues and R&B devotee.
This special collector's edition contains twenty nine re-mastered recordings by Clarence “Gatemouth” Brown, consisting of a selection of the magnicent early sides released between 1947 and 1960 on the Peacock and Aladdin record labels. Gate of course plays guitar, harmonica, fiddle and sings. He is joined on various sides by Johnny Parker (bass), Jimmy McCracklin, Paul Monday (piano), Duke Barker (drums), Maxwell Davis, Bill Harvey (tenor sax), Jack McVea (alto sax), Fred Ford (baritone sax), Pluma Davis (trombone), among others. All these sides, as you might suspect by the personnel, were all recorded in Houston and Los Angeles. This package includes a sixteen page booklet.
-

Лог создания рипа

Exact Audio Copy V1.0 beta 6 from 9. April 2015
EAC extraction logfile from 19. March 2016, 19:57
Clarence Gatemouth Brown / Gate Walks To Board: 1947-1960 Aladdin & Peacock Sides
Used drive : TSSTcorpCDDVDW SH-224BB Adapter: 1 ID: 0
Read mode : Secure
Utilize accurate stream : Yes
Defeat audio cache : Yes
Make use of C2 pointers : No
Read offset correction : 6
Overread into Lead-In and Lead-Out : No
Fill up missing offset samples with silence : Yes
Delete leading and trailing silent blocks : No
Null samples used in CRC calculations : Yes
Used interface : Native Win32 interface for Win NT & 2000
Gap handling : Appended to previous track
Used output format : User Defined Encoder
Selected bitrate : 768 kBit/s
Quality : High
Add ID3 tag : No
Command line compressor : C:\Program Files (x86)\Exact Audio Copy\Flac\flac.exe
Additional command line options : -8 -V -T "ARTIST=%artist%" -T "TITLE=%title%" -T "ALBUM=%albumtitle%" -T "DATE=%year%" -T "TRACKNUMBER=%tracknr%" -T "TOTALTRACKS=%numtracks%" -T "GENRE=%genre%" -T "ALBUMARTIST=%albumartist%" -T "ALBUM ARTIST=%albumartist%" -T "COMMENT=EAC Secure Mode, Test & Copy, AccurateRip, FLAC -8" %source%
TOC of the extracted CD
Track | Start | Length | Start sector | End sector
---------------------------------------------------------
1 | 0:00.00 | 2:46.66 | 0 | 12515
2 | 2:46.66 | 2:43.57 | 12516 | 24797
3 | 5:30.48 | 2:36.47 | 24798 | 36544
4 | 8:07.20 | 2:45.66 | 36545 | 48985
5 | 10:53.11 | 2:44.00 | 48986 | 61285
6 | 13:37.11 | 2:33.47 | 61286 | 72807
7 | 16:10.58 | 2:52.00 | 72808 | 85707
8 | 19:02.58 | 2:46.57 | 85708 | 98214
9 | 21:49.40 | 2:09.29 | 98215 | 107918
10 | 23:58.69 | 2:54.66 | 107919 | 121034
11 | 26:53.60 | 2:46.38 | 121035 | 133522
12 | 29:40.23 | 2:31.00 | 133523 | 144847
13 | 32:11.23 | 2:30.10 | 144848 | 156107
14 | 34:41.33 | 2:47.10 | 156108 | 168642
15 | 37:28.43 | 2:43.47 | 168643 | 180914
16 | 40:12.15 | 2:33.38 | 180915 | 192427
17 | 42:45.53 | 2:55.19 | 192428 | 205571
18 | 45:40.72 | 2:57.00 | 205572 | 218846
19 | 48:37.72 | 2:47.57 | 218847 | 231428
20 | 51:25.54 | 2:48.00 | 231429 | 244028
21 | 54:13.54 | 2:50.47 | 244029 | 256825
22 | 57:04.26 | 2:54.19 | 256826 | 269894
23 | 59:58.45 | 2:48.57 | 269895 | 282551
24 | 62:47.27 | 2:38.47 | 282552 | 294448
25 | 65:25.74 | 2:45.10 | 294449 | 306833
26 | 68:11.09 | 2:31.38 | 306834 | 318196
27 | 70:42.47 | 2:39.57 | 318197 | 330178
28 | 73:22.29 | 2:35.47 | 330179 | 341850
29 | 75:58.01 | 2:44.00 | 341851 | 354150
Track 1
Filename C:\Rips\Clarence Gatemouth Brown - Gate Walks To Board (2015) [FLAC]\01 - Midnight Hour.wav
Pre-gap length 0:00:02.00
Peak level 91.2 %
Extraction speed 1.8 X
Track quality 100.0 %
Test CRC 7BBFABF8
Copy CRC 7BBFABF8
Track not present in AccurateRip database
Copy OK
Track 2
Filename C:\Rips\Clarence Gatemouth Brown - Gate Walks To Board (2015) [FLAC]\02 - That's Your Daddy Yaddy Yo.wav
Pre-gap length 0:00:02.00
Peak level 91.2 %
Extraction speed 1.9 X
Track quality 100.0 %
Test CRC 2C280402
Copy CRC 2C280402
Track not present in AccurateRip database
Copy OK
Track 3
Filename C:\Rips\Clarence Gatemouth Brown - Gate Walks To Board (2015) [FLAC]\03 - Good Looking Woman.wav
Pre-gap length 0:00:02.00
Peak level 91.2 %
Extraction speed 2.0 X
Track quality 100.0 %
Test CRC 0DAF607D
Copy CRC 0DAF607D
Track not present in AccurateRip database
Copy OK
Track 4
Filename C:\Rips\Clarence Gatemouth Brown - Gate Walks To Board (2015) [FLAC]\04 - Hurry Back Good News.wav
Pre-gap length 0:00:02.00
Peak level 91.2 %
Extraction speed 2.1 X
Track quality 100.0 %
Test CRC BE3A1BF6
Copy CRC BE3A1BF6
Track not present in AccurateRip database
Copy OK
Track 5
Filename C:\Rips\Clarence Gatemouth Brown - Gate Walks To Board (2015) [FLAC]\05 - Gate's Salty Blues.wav
Pre-gap length 0:00:02.00
Peak level 91.2 %
Extraction speed 1.7 X
Track quality 99.9 %
Test CRC 79FDB817
Copy CRC 79FDB817
Track not present in AccurateRip database
Copy OK
Track 6
Filename C:\Rips\Clarence Gatemouth Brown - Gate Walks To Board (2015) [FLAC]\06 - Okie Dokie Stomp.wav
Pre-gap length 0:00:02.00
Peak level 91.2 %
Extraction speed 2.2 X
Track quality 100.0 %
Test CRC 82470D19
Copy CRC 82470D19
Track not present in AccurateRip database
Copy OK
Track 7
Filename C:\Rips\Clarence Gatemouth Brown - Gate Walks To Board (2015) [FLAC]\07 - Ain't That Dandy.wav
Pre-gap length 0:00:02.00
Peak level 91.2 %
Extraction speed 1.8 X
Track quality 99.9 %
Test CRC 62CD9C27
Copy CRC 62CD9C27
Track not present in AccurateRip database
Copy OK
Track 8
Filename C:\Rips\Clarence Gatemouth Brown - Gate Walks To Board (2015) [FLAC]\08 - Dirty Work At The Crossroads.wav
Pre-gap length 0:00:02.00
Peak level 91.2 %
Extraction speed 2.4 X
Track quality 100.0 %
Test CRC FC2FF4FE
Copy CRC FC2FF4FE
Track not present in AccurateRip database
Copy OK
Track 9
Filename C:\Rips\Clarence Gatemouth Brown - Gate Walks To Board (2015) [FLAC]\09 - Just Before Dawn.wav
Pre-gap length 0:00:02.00
Peak level 91.2 %
Extraction speed 2.4 X
Track quality 100.0 %
Test CRC 07AA3D95
Copy CRC 07AA3D95
Track not present in AccurateRip database
Copy OK
Track 10
Filename C:\Rips\Clarence Gatemouth Brown - Gate Walks To Board (2015) [FLAC]\10 - Depression Blues.wav
Pre-gap length 0:00:02.00
Peak level 91.2 %
Extraction speed 2.6 X
Track quality 100.0 %
Test CRC D8EDCF54
Copy CRC D8EDCF54
Track not present in AccurateRip database
Copy OK
Track 11
Filename C:\Rips\Clarence Gatemouth Brown - Gate Walks To Board (2015) [FLAC]\11 - For Now So Long.wav
Pre-gap length 0:00:02.00
Peak level 91.2 %
Extraction speed 2.7 X
Track quality 100.0 %
Test CRC CB89C8E5
Copy CRC CB89C8E5
Track not present in AccurateRip database
Copy OK
Track 12
Filename C:\Rips\Clarence Gatemouth Brown - Gate Walks To Board (2015) [FLAC]\12 - Gate Walks To Board.wav
Pre-gap length 0:00:02.00
Peak level 91.2 %
Extraction speed 2.7 X
Track quality 100.0 %
Test CRC BD3FCD71
Copy CRC BD3FCD71
Track not present in AccurateRip database
Copy OK
Track 13
Filename C:\Rips\Clarence Gatemouth Brown - Gate Walks To Board (2015) [FLAC]\13 - You Got Money.wav
Pre-gap length 0:00:02.00
Peak level 91.2 %
Extraction speed 2.8 X
Track quality 100.0 %
Test CRC CFF42B40
Copy CRC CFF42B40
Track not present in AccurateRip database
Copy OK
Track 14
Filename C:\Rips\Clarence Gatemouth Brown - Gate Walks To Board (2015) [FLAC]\14 - Please Tell Me Baby.wav
Pre-gap length 0:00:02.00
Peak level 91.2 %
Extraction speed 2.9 X
Track quality 100.0 %
Test CRC D0A846A4
Copy CRC D0A846A4
Track not present in AccurateRip database
Copy OK
Track 15
Filename C:\Rips\Clarence Gatemouth Brown - Gate Walks To Board (2015) [FLAC]\15 - Boogie Uproar.wav
Pre-gap length 0:00:02.00
Peak level 91.2 %
Extraction speed 2.9 X
Track quality 100.0 %
Test CRC 1E59862B
Copy CRC 1E59862B
Track not present in AccurateRip database
Copy OK
Track 16
Filename C:\Rips\Clarence Gatemouth Brown - Gate Walks To Board (2015) [FLAC]\16 - Baby Take It Easy.wav
Pre-gap length 0:00:02.00
Peak level 91.2 %
Extraction speed 3.0 X
Track quality 100.0 %
Test CRC 6633D0EB
Copy CRC 6633D0EB
Track not present in AccurateRip database
Copy OK
Track 17
Filename C:\Rips\Clarence Gatemouth Brown - Gate Walks To Board (2015) [FLAC]\17 - She Winked Her Eye.wav
Pre-gap length 0:00:02.00
Peak level 91.2 %
Extraction speed 2.2 X
Track quality 99.9 %
Test CRC 7FDCB971
Copy CRC 7FDCB971
Track not present in AccurateRip database
Copy OK
Track 18
Filename C:\Rips\Clarence Gatemouth Brown - Gate Walks To Board (2015) [FLAC]\18 - Win With Me, Baby.wav
Pre-gap length 0:00:02.00
Peak level 91.2 %
Extraction speed 3.2 X
Track quality 100.0 %
Test CRC C152701B
Copy CRC C152701B
Track not present in AccurateRip database
Copy OK
Track 19
Filename C:\Rips\Clarence Gatemouth Brown - Gate Walks To Board (2015) [FLAC]\19 - Taking My Chances.wav
Pre-gap length 0:00:02.00
Peak level 91.2 %
Extraction speed 3.2 X
Track quality 100.0 %
Test CRC EDB621EC
Copy CRC EDB621EC
Track not present in AccurateRip database
Copy OK
Track 20
Filename C:\Rips\Clarence Gatemouth Brown - Gate Walks To Board (2015) [FLAC]\20 - My Time Is Expensive.wav
Pre-gap length 0:00:02.00
Peak level 91.2 %
Extraction speed 2.2 X
Track quality 99.9 %
Test CRC 518E4F3C
Copy CRC 518E4F3C
Track not present in AccurateRip database
Copy OK
Track 21
Filename C:\Rips\Clarence Gatemouth Brown - Gate Walks To Board (2015) [FLAC]\21 - Pale Dry Boogie (pt. 1).wav
Pre-gap length 0:00:02.00
Peak level 91.2 %
Extraction speed 2.2 X
Track quality 99.9 %
Test CRC 60B26A4C
Copy CRC 60B26A4C
Track not present in AccurateRip database
Copy OK
Track 22
Filename C:\Rips\Clarence Gatemouth Brown - Gate Walks To Board (2015) [FLAC]\22 - Pale Dry Boogie (pt. 2).wav
Pre-gap length 0:00:02.00
Peak level 91.2 %
Extraction speed 2.3 X
Track quality 99.9 %
Test CRC 48F27157
Copy CRC 48F27157
Track not present in AccurateRip database
Copy OK
Track 23
Filename C:\Rips\Clarence Gatemouth Brown - Gate Walks To Board (2015) [FLAC]\23 - Boogie Rambler.wav
Pre-gap length 0:00:02.00
Peak level 88.8 %
Extraction speed 3.5 X
Track quality 100.0 %
Test CRC 3A7EB032
Copy CRC 3A7EB032
Track not present in AccurateRip database
Copy OK
Track 24
Filename C:\Rips\Clarence Gatemouth Brown - Gate Walks To Board (2015) [FLAC]\24 - I Live My Life.wav
Pre-gap length 0:00:02.00
Peak level 91.2 %
Extraction speed 3.5 X
Track quality 100.0 %
Test CRC 9EE6348D
Copy CRC 9EE6348D
Track not present in AccurateRip database
Copy OK
Track 25
Filename C:\Rips\Clarence Gatemouth Brown - Gate Walks To Board (2015) [FLAC]\25 - Guitar In My Hand.wav
Pre-gap length 0:00:02.00
Peak level 91.2 %
Extraction speed 3.6 X
Track quality 100.0 %
Test CRC 074EA3E8
Copy CRC 074EA3E8
Track not present in AccurateRip database
Copy OK
Track 26
Filename C:\Rips\Clarence Gatemouth Brown - Gate Walks To Board (2015) [FLAC]\26 - Without Me Baby.wav
Pre-gap length 0:00:02.00
Peak level 91.2 %
Extraction speed 3.6 X
Track quality 100.0 %
Test CRC B19EE78B
Copy CRC B19EE78B
Track not present in AccurateRip database
Copy OK
Track 27
Filename C:\Rips\Clarence Gatemouth Brown - Gate Walks To Board (2015) [FLAC]\27 - Mary Is Fine.wav
Pre-gap length 0:00:02.00
Peak level 80.3 %
Extraction speed 3.6 X
Track quality 100.0 %
Test CRC 513F0D89
Copy CRC 513F0D89
Track not present in AccurateRip database
Copy OK
Track 28
Filename C:\Rips\Clarence Gatemouth Brown - Gate Walks To Board (2015) [FLAC]\28 - Too Late Baby.wav
Pre-gap length 0:00:02.00
Peak level 91.2 %
Extraction speed 3.6 X
Track quality 100.0 %
Test CRC 16E5CEBA
Copy CRC 16E5CEBA
Track not present in AccurateRip database
Copy OK
Track 29
Filename C:\Rips\Clarence Gatemouth Brown - Gate Walks To Board (2015) [FLAC]\29 - She Walks Right In.wav
Pre-gap length 0:00:02.00
Peak level 91.2 %
Extraction speed 2.3 X
Track quality 99.9 %
Test CRC 5F20D30C
Copy CRC 5F20D30C
Track not present in AccurateRip database
Copy OK
None of the tracks are present in the AccurateRip database
No errors occurred
End of status report
---- CUETools DB Plugin V2.1.6
[CTDB TOCID: .1d7VLr0BC2VhFWbssnDjuzMBGw-] found
Submit result: already submitted
Track | CTDB Status
1 | (1/1) Accurately ripped
2 | (1/1) Accurately ripped
3 | (1/1) Accurately ripped
4 | (1/1) Accurately ripped
5 | (1/1) Accurately ripped
6 | (1/1) Accurately ripped
7 | (1/1) Accurately ripped
8 | (1/1) Accurately ripped
9 | (1/1) Accurately ripped
10 | (1/1) Accurately ripped
11 | (1/1) Accurately ripped
12 | (1/1) Accurately ripped
13 | (1/1) Accurately ripped
14 | (1/1) Accurately ripped
15 | (1/1) Accurately ripped
16 | (1/1) Accurately ripped
17 | (1/1) Accurately ripped
18 | (1/1) Accurately ripped
19 | (1/1) Accurately ripped
20 | (1/1) Accurately ripped
21 | (1/1) Accurately ripped
22 | (1/1) Accurately ripped
23 | (1/1) Accurately ripped
24 | (1/1) Accurately ripped
25 | (1/1) Accurately ripped
26 | (1/1) Accurately ripped
27 | (1/1) Accurately ripped
28 | (1/1) Accurately ripped
29 | (1/1) Accurately ripped
==== Log checksum 2003BBC389C840A325CE199E889B916D039C787CAD3191231077212A6419A731 ====

Содержание индексной карты (.CUE)

REM GENRE Blues
REM DATE 2015
REM DISCID A412721D
REM COMMENT "ExactAudioCopy v1.0b6"
PERFORMER "Clarence Gatemouth Brown"
TITLE "Gate Walks To Board: 1947-1960 Aladdin & Peacock Sides"
FILE "01 - Midnight Hour.wav" WAVE
TRACK 01 AUDIO
TITLE "Midnight Hour"
PERFORMER "Clarence Gatemouth Brown"
INDEX 01 00:00:00
TRACK 02 AUDIO
TITLE "That's Your Daddy Yaddy Yo"
PERFORMER "Clarence Gatemouth Brown"
INDEX 00 02:44:66
FILE "02 - That's Your Daddy Yaddy Yo.wav" WAVE
INDEX 01 00:00:00
TRACK 03 AUDIO
TITLE "Good Looking Woman"
PERFORMER "Clarence Gatemouth Brown"
INDEX 00 02:41:57
FILE "03 - Good Looking Woman.wav" WAVE
INDEX 01 00:00:00
TRACK 04 AUDIO
TITLE "Hurry Back Good News"
PERFORMER "Clarence Gatemouth Brown"
INDEX 00 02:34:47
FILE "04 - Hurry Back Good News.wav" WAVE
INDEX 01 00:00:00
TRACK 05 AUDIO
TITLE "Gate's Salty Blues"
PERFORMER "Clarence Gatemouth Brown"
INDEX 00 02:43:66
FILE "05 - Gate's Salty Blues.wav" WAVE
INDEX 01 00:00:00
TRACK 06 AUDIO
TITLE "Okie Dokie Stomp"
PERFORMER "Clarence Gatemouth Brown"
INDEX 00 02:42:00
FILE "06 - Okie Dokie Stomp.wav" WAVE
INDEX 01 00:00:00
TRACK 07 AUDIO
TITLE "Ain't That Dandy"
PERFORMER "Clarence Gatemouth Brown"
INDEX 00 02:31:47
FILE "07 - Ain't That Dandy.wav" WAVE
INDEX 01 00:00:00
TRACK 08 AUDIO
TITLE "Dirty Work At The Crossroads"
PERFORMER "Clarence Gatemouth Brown"
INDEX 00 02:50:00
FILE "08 - Dirty Work At The Crossroads.wav" WAVE
INDEX 01 00:00:00
TRACK 09 AUDIO
TITLE "Just Before Dawn"
PERFORMER "Clarence Gatemouth Brown"
INDEX 00 02:44:57
FILE "09 - Just Before Dawn.wav" WAVE
INDEX 01 00:00:00
TRACK 10 AUDIO
TITLE "Depression Blues"
PERFORMER "Clarence Gatemouth Brown"
INDEX 00 02:07:29
FILE "10 - Depression Blues.wav" WAVE
INDEX 01 00:00:00
TRACK 11 AUDIO
TITLE "For Now So Long"
PERFORMER "Clarence Gatemouth Brown"
INDEX 00 02:52:66
FILE "11 - For Now So Long.wav" WAVE
INDEX 01 00:00:00
TRACK 12 AUDIO
TITLE "Gate Walks To Board"
PERFORMER "Clarence Gatemouth Brown"
INDEX 00 02:44:38
FILE "12 - Gate Walks To Board.wav" WAVE
INDEX 01 00:00:00
TRACK 13 AUDIO
TITLE "You Got Money"
PERFORMER "Clarence Gatemouth Brown"
INDEX 00 02:29:00
FILE "13 - You Got Money.wav" WAVE
INDEX 01 00:00:00
TRACK 14 AUDIO
TITLE "Please Tell Me Baby"
PERFORMER "Clarence Gatemouth Brown"
INDEX 00 02:28:10
FILE "14 - Please Tell Me Baby.wav" WAVE
INDEX 01 00:00:00
TRACK 15 AUDIO
TITLE "Boogie Uproar"
PERFORMER "Clarence Gatemouth Brown"
INDEX 00 02:45:10
FILE "15 - Boogie Uproar.wav" WAVE
INDEX 01 00:00:00
TRACK 16 AUDIO
TITLE "Baby Take It Easy"
PERFORMER "Clarence Gatemouth Brown"
INDEX 00 02:41:47
FILE "16 - Baby Take It Easy.wav" WAVE
INDEX 01 00:00:00
TRACK 17 AUDIO
TITLE "She Winked Her Eye"
PERFORMER "Clarence Gatemouth Brown"
INDEX 00 02:31:38
FILE "17 - She Winked Her Eye.wav" WAVE
INDEX 01 00:00:00
TRACK 18 AUDIO
TITLE "Win With Me, Baby"
PERFORMER "Clarence Gatemouth Brown"
INDEX 00 02:53:19
FILE "18 - Win With Me, Baby.wav" WAVE
INDEX 01 00:00:00
TRACK 19 AUDIO
TITLE "Taking My Chances"
PERFORMER "Clarence Gatemouth Brown"
INDEX 00 02:55:00
FILE "19 - Taking My Chances.wav" WAVE
INDEX 01 00:00:00
TRACK 20 AUDIO
TITLE "My Time Is Expensive"
PERFORMER "Clarence Gatemouth Brown"
INDEX 00 02:45:57
FILE "20 - My Time Is Expensive.wav" WAVE
INDEX 01 00:00:00
TRACK 21 AUDIO
TITLE "Pale Dry Boogie (pt. 1)"
PERFORMER "Clarence Gatemouth Brown"
INDEX 00 02:46:00
FILE "21 - Pale Dry Boogie (pt. 1).wav" WAVE
INDEX 01 00:00:00
TRACK 22 AUDIO
TITLE "Pale Dry Boogie (pt. 2)"
PERFORMER "Clarence Gatemouth Brown"
INDEX 00 02:48:47
FILE "22 - Pale Dry Boogie (pt. 2).wav" WAVE
INDEX 01 00:00:00
TRACK 23 AUDIO
TITLE "Boogie Rambler"
PERFORMER "Clarence Gatemouth Brown"
INDEX 00 02:52:19
FILE "23 - Boogie Rambler.wav" WAVE
INDEX 01 00:00:00
TRACK 24 AUDIO
TITLE "I Live My Life"
PERFORMER "Clarence Gatemouth Brown"
INDEX 00 02:46:57
FILE "24 - I Live My Life.wav" WAVE
INDEX 01 00:00:00
TRACK 25 AUDIO
TITLE "Guitar In My Hand"
PERFORMER "Clarence Gatemouth Brown"
INDEX 00 02:36:47
FILE "25 - Guitar In My Hand.wav" WAVE
INDEX 01 00:00:00
TRACK 26 AUDIO
TITLE "Without Me Baby"
PERFORMER "Clarence Gatemouth Brown"
INDEX 00 02:43:10
FILE "26 - Without Me Baby.wav" WAVE
INDEX 01 00:00:00
TRACK 27 AUDIO
TITLE "Mary Is Fine"
PERFORMER "Clarence Gatemouth Brown"
INDEX 00 02:29:38
FILE "27 - Mary Is Fine.wav" WAVE
INDEX 01 00:00:00
TRACK 28 AUDIO
TITLE "Too Late Baby"
PERFORMER "Clarence Gatemouth Brown"
INDEX 00 02:37:57
FILE "28 - Too Late Baby.wav" WAVE
INDEX 01 00:00:00
TRACK 29 AUDIO
TITLE "She Walks Right In"
PERFORMER "Clarence Gatemouth Brown"
INDEX 00 02:33:47
FILE "29 - She Walks Right In.wav" WAVE
INDEX 01 00:00:00

To download the file disable ad blocking, and reload the page.

disable adblock How to disable ad blocking?

Download by magnet link 506 MB Download Torrent

Login using:

Загрузка...

Similar topics

Clarence Brown - Jazz & Blues collection (1996) [MP3|320 кб/с]<Jazz>
 117 MB   0 | 0   08-Nov-17 19:05   0
(Blues) [CD] Clarence Carter - Patches - 2002, FLAC (image+.cue), lossless
 184 MB   0 | 0   02-May-17 00:32   0


   
Current time is: 17-Dec 13:15 :: All times are UTC + 3