Larry McCray / Born To Play The Blues Жанр: Electric Blues, Blues-Rock
Носитель: CD
Страна-производитель диска (релиза): US
Год издания: 1998
Издатель (лейбл): House Of Blues
Номер по каталогу: 51416 14042
Страна исполнителя (группы): US
Аудиокодек: FLAC (*.flac)
Тип рипа: tracks+.cue
Битрейт аудио: lossless
Продолжительность: 01:00:50
Источник (релизер): Croak40
Наличие сканов в содержимом раздачи: да, с сети
Треклист:
01. Born to Play the Blues (4:54)
02. Smooth Sailing (5:09)
03. Feel So Damn Good (4:08)
04. Same Old Blues (4:46)
05. Sunny Monday (6:06)
06. I Wonder (5:40)
07. Worried Down With the Blues (6:57)
08. Woman Across the River (4:01)
09. Man on Bended Knee (4:59)
10. Sugar Coated Love (4:29)
11. Gone for Good (6:32)
12. I'm a Lover Not a Fighter (3:11)
Official DR value: DR12

Лог создания рипа

Exact Audio Copy V1.1 from 23. June 2015
EAC extraction logfile from 5. February 2016, 16:30
Larry McCray / Born to Play the Blues
Used drive : TSSTcorpCDDVDW SU-208FB Adapter: 1 ID: 0
Read mode : Secure
Utilize accurate stream : Yes
Defeat audio cache : Yes
Make use of C2 pointers : No
Read offset correction : 6
Overread into Lead-In and Lead-Out : No
Fill up missing offset samples with silence : Yes
Delete leading and trailing silent blocks : No
Null samples used in CRC calculations : Yes
Used interface : Native Win32 interface for Win NT & 2000
Gap handling : Appended to previous track
Used output format : User Defined Encoder
Selected bitrate : 1024 kBit/s
Quality : High
Add ID3 tag : No
Command line compressor : C:\Program Files (x86)\Exact Audio Copy\Flac\flac.exe
Additional command line options : -8 -V -T "ARTIST=%artist%" -T "TITLE=%title%" -T "ALBUM=%albumtitle%" -T "DATE=%year%" -T "TRACKNUMBER=%tracknr%" -T "GENRE=%genre%" -T "PERFORMER=%albuminterpret%" -T "COMPOSER=%composer%" %haslyrics%--tag-from-file=LYRICS="%lyricsfile%"%haslyrics% -T "ALBUMARTIST=%albumartist%" -T "DISCNUMBER=%cdnumber%" -T "TOTALDISCS=%totalcds%" -T "TOTALTRACKS=%numtracks%" -T "COMMENT=%comment%" %source% -o %dest%
TOC of the extracted CD
Track | Start | Length | Start sector | End sector
---------------------------------------------------------
1 | 0:00.00 | 4:53.38 | 0 | 22012
2 | 4:53.38 | 5:08.69 | 22013 | 45181
3 | 10:02.32 | 4:07.73 | 45182 | 63779
4 | 14:10.30 | 4:46.28 | 63780 | 85257
5 | 18:56.58 | 6:05.61 | 85258 | 112693
6 | 25:02.44 | 5:39.41 | 112694 | 138159
7 | 30:42.10 | 6:56.74 | 138160 | 169433
8 | 37:39.09 | 4:01.00 | 169434 | 187508
9 | 41:40.09 | 4:59.02 | 187509 | 209935
10 | 46:39.11 | 4:28.39 | 209936 | 230074
11 | 51:07.50 | 6:31.48 | 230075 | 259447
12 | 57:39.23 | 3:10.63 | 259448 | 273760
Track 1
Filename C:\what\rips\Larry McCray - Born to Play the Blues (1998) [FLAC] {51416 1404 2}\01 - Born to Play the Blues.wav
Pre-gap length 0:00:02.00
Peak level 100.0 %
Extraction speed 1.8 X
Track quality 100.0 %
Test CRC 8BFFDB5F
Copy CRC 8BFFDB5F
Accurately ripped (confidence 5) [DA559B28] (AR v2)
Copy OK
Track 2
Filename C:\what\rips\Larry McCray - Born to Play the Blues (1998) [FLAC] {51416 1404 2}\02 - Smooth Sailing.wav
Pre-gap length 0:00:01.45
Peak level 100.0 %
Extraction speed 2.1 X
Track quality 100.0 %
Test CRC C75B79A6
Copy CRC C75B79A6
Accurately ripped (confidence 5) [D6FDAF37] (AR v2)
Copy OK
Track 3
Filename C:\what\rips\Larry McCray - Born to Play the Blues (1998) [FLAC] {51416 1404 2}\03 - Feel So Damn Good.wav
Pre-gap length 0:00:00.45
Peak level 100.0 %
Extraction speed 1.7 X
Track quality 99.9 %
Test CRC 2BFCB47F
Copy CRC 2BFCB47F
Accurately ripped (confidence 5) [C23D5225] (AR v2)
Copy OK
Track 4
Filename C:\what\rips\Larry McCray - Born to Play the Blues (1998) [FLAC] {51416 1404 2}\04 - Same Old Blues.wav
Pre-gap length 0:00:01.45
Peak level 100.0 %
Extraction speed 2.3 X
Track quality 100.0 %
Test CRC DFE01972
Copy CRC DFE01972
Accurately ripped (confidence 5) [DF76C258] (AR v2)
Copy OK
Track 5
Filename C:\what\rips\Larry McCray - Born to Play the Blues (1998) [FLAC] {51416 1404 2}\05 - Sunny Monday.wav
Pre-gap length 0:00:00.45
Peak level 100.0 %
Extraction speed 2.1 X
Track quality 99.9 %
Test CRC E2CB0605
Copy CRC E2CB0605
Accurately ripped (confidence 5) [1FCED806] (AR v2)
Copy OK
Track 6
Filename C:\what\rips\Larry McCray - Born to Play the Blues (1998) [FLAC] {51416 1404 2}\06 - I Wonder.wav
Pre-gap length 0:00:00.30
Peak level 100.0 %
Extraction speed 2.8 X
Track quality 100.0 %
Test CRC 532DB51D
Copy CRC 532DB51D
Accurately ripped (confidence 5) [373F4C75] (AR v2)
Copy OK
Track 7
Filename C:\what\rips\Larry McCray - Born to Play the Blues (1998) [FLAC] {51416 1404 2}\07 - Worried Down With the Blues.wav
Pre-gap length 0:00:00.46
Peak level 100.0 %
Extraction speed 2.5 X
Track quality 99.9 %
Test CRC DFB4F303
Copy CRC DFB4F303
Accurately ripped (confidence 5) [3C9A5AAA] (AR v2)
Copy OK
Track 8
Filename C:\what\rips\Larry McCray - Born to Play the Blues (1998) [FLAC] {51416 1404 2}\08 - Woman Across the River.wav
Pre-gap length 0:00:01.07
Peak level 100.0 %
Extraction speed 2.2 X
Track quality 99.9 %
Test CRC DAEC49DA
Copy CRC DAEC49DA
Accurately ripped (confidence 5) [650EEF2C] (AR v2)
Copy OK
Track 9
Filename C:\what\rips\Larry McCray - Born to Play the Blues (1998) [FLAC] {51416 1404 2}\09 - Man on Bended Knee.wav
Pre-gap length 0:00:00.45
Peak level 100.0 %
Extraction speed 3.2 X
Track quality 100.0 %
Test CRC 0F2DDF76
Copy CRC 0F2DDF76
Accurately ripped (confidence 3) [A9342EAE] (AR v2)
Copy OK
Track 10
Filename C:\what\rips\Larry McCray - Born to Play the Blues (1998) [FLAC] {51416 1404 2}\10 - Sugar Coated Love.wav
Pre-gap length 0:00:00.45
Peak level 100.0 %
Extraction speed 3.2 X
Track quality 100.0 %
Test CRC 2DEFA26F
Copy CRC 2DEFA26F
Accurately ripped (confidence 3) [0D1B2E52] (AR v2)
Copy OK
Track 11
Filename C:\what\rips\Larry McCray - Born to Play the Blues (1998) [FLAC] {51416 1404 2}\11 - Gone for Good.wav
Pre-gap length 0:00:00.45
Peak level 100.0 %
Extraction speed 3.5 X
Track quality 100.0 %
Test CRC 7EB3A89F
Copy CRC 7EB3A89F
Accurately ripped (confidence 5) [FBEDDE95] (AR v2)
Copy OK
Track 12
Filename C:\what\rips\Larry McCray - Born to Play the Blues (1998) [FLAC] {51416 1404 2}\12 - I'm a Lover Not a Fighter.wav
Pre-gap length 0:00:00.45
Peak level 100.0 %
Extraction speed 3.3 X
Track quality 100.0 %
Test CRC BAB1395E
Copy CRC BAB1395E
Accurately ripped (confidence 5) [DF06E48C] (AR v2)
Copy OK
All tracks accurately ripped
No errors occurred
End of status report
---- CUETools DB Plugin V2.1.6
[CTDB TOCID: 8QhsZsS3I.9piQvPix50AZIZUYQ-] found
Submit result: 8QhsZsS3I.9piQvPix50AZIZUYQ- has been confirmed
Track | CTDB Status
1 | (2/2) Accurately ripped
2 | (2/2) Accurately ripped
3 | (2/2) Accurately ripped
4 | (2/2) Accurately ripped
5 | (2/2) Accurately ripped
6 | (2/2) Accurately ripped
7 | (2/2) Accurately ripped
8 | (2/2) Accurately ripped
9 | (1/2) Accurately ripped, or (1/2) differs in 129 samples @01:30:50,01:34:04,01:38:66,01:39:26-01:39:27,01:39:62,01:42:18-01:42:19,01:42:73,01:44:67-01:44:68,01:45:29,01:46:26-01:46:27,01:55:04-01:55:05,02:05:16
10 | (1/2) Accurately ripped, or (1/2) differs in 32 samples @04:04:51-04:04:52
11 | (2/2) Accurately ripped
12 | (2/2) Accurately ripped
==== Log checksum B43666A41DD205329BC3C1AFEB07C8E61BFF557FBA618BBBBEA6A907924CCA13 ====

Содержание индексной карты (.CUE)

REM GENRE Blues
REM DATE 1998
REM DISCID 920E420C
REM COMMENT "ExactAudioCopy v1.1"
PERFORMER "Larry McCray"
TITLE "Born to Play the Blues"
FILE "01 - Born to Play the Blues.wav" WAVE
TRACK 01 AUDIO
TITLE "Born to Play the Blues"
PERFORMER "Larry McCray"
INDEX 01 00:00:00
TRACK 02 AUDIO
TITLE "Smooth Sailing"
PERFORMER "Larry McCray"
INDEX 00 04:51:68
FILE "02 - Smooth Sailing.wav" WAVE
INDEX 01 00:00:00
TRACK 03 AUDIO
TITLE "Feel So Damn Good"
PERFORMER "Larry McCray"
INDEX 00 05:08:24
FILE "03 - Feel So Damn Good.wav" WAVE
INDEX 01 00:00:00
TRACK 04 AUDIO
TITLE "Same Old Blues"
PERFORMER "Larry McCray"
INDEX 00 04:06:28
FILE "04 - Same Old Blues.wav" WAVE
INDEX 01 00:00:00
TRACK 05 AUDIO
TITLE "Sunny Monday"
PERFORMER "Larry McCray"
INDEX 00 04:45:58
FILE "05 - Sunny Monday.wav" WAVE
INDEX 01 00:00:00
TRACK 06 AUDIO
TITLE "I Wonder"
PERFORMER "Larry McCray"
INDEX 00 06:05:31
FILE "06 - I Wonder.wav" WAVE
INDEX 01 00:00:00
TRACK 07 AUDIO
TITLE "Worried Down With the Blues"
PERFORMER "Larry McCray"
INDEX 00 05:38:70
FILE "07 - Worried Down With the Blues.wav" WAVE
INDEX 01 00:00:00
TRACK 08 AUDIO
TITLE "Woman Across the River"
PERFORMER "Larry McCray"
INDEX 00 06:55:67
FILE "08 - Woman Across the River.wav" WAVE
INDEX 01 00:00:00
TRACK 09 AUDIO
TITLE "Man on Bended Knee"
PERFORMER "Larry McCray"
INDEX 00 04:00:30
FILE "09 - Man on Bended Knee.wav" WAVE
INDEX 01 00:00:00
TRACK 10 AUDIO
TITLE "Sugar Coated Love"
PERFORMER "Larry McCray"
INDEX 00 04:58:32
FILE "10 - Sugar Coated Love.wav" WAVE
INDEX 01 00:00:00
TRACK 11 AUDIO
TITLE "Gone for Good"
PERFORMER "Larry McCray"
INDEX 00 04:27:69
FILE "11 - Gone for Good.wav" WAVE
INDEX 01 00:00:00
TRACK 12 AUDIO
TITLE "I'm a Lover Not a Fighter"
PERFORMER "Larry McCray"
INDEX 00 06:31:03
FILE "12 - I'm a Lover Not a Fighter.wav" WAVE
INDEX 01 00:00:00

Лог проверки качества

-----------------------
DON'T MODIFY THIS FILE
-----------------------
PERFORMER: auCDtect Task Manager, ver. 1.6.0 RC1 build 1.6.0.1
Copyright (c) 2008-2010 y-soft. All rights reserved
http://y-soft.org
ANALYZER: auCDtect: CD records authenticity detector, version 0.8.2
Copyright (c) 2004 Oleg Berngardt. All rights reserved.
Copyright (c) 2004 Alexander Djourik. All rights reserved.
FILE: 12 - I'm a Lover Not a Fighter.flac
Size: 20042558 Hash: D4E3517103EA417077D4BEB3C8E08581 Accuracy: -m0
Conclusion: CDDA 100%
Signature: 30A64EC86FC2FE54550D71C14ED88B1580F5EB34
FILE: 11 - Gone for Good.flac
Size: 41135092 Hash: EDE79DAE0BA182232B33A81ECE836D7D Accuracy: -m0
Conclusion: CDDA 99%
Signature: F6FEB426901872C031A33A2CF04F735D16923A2D
FILE: 10 - Sugar Coated Love.flac
Size: 29142957 Hash: 3238FEEBCB224176F668926B5AF73431 Accuracy: -m0
Conclusion: CDDA 99%
Signature: 06F95DDCF463F32CDCC19FAF3734BB5AA73A8845
FILE: 09 - Man on Bended Knee.flac
Size: 32008559 Hash: 07748A572CD2BB9392DE64A24DE65A51 Accuracy: -m0
Conclusion: CDDA 100%
Signature: 1E855E394A1BFD301E47E3BED42196D9F5E9E766
FILE: 08 - Woman Across the River.flac
Size: 25461811 Hash: A4C0DD0EA582EA021A70CA8E2BAA8D17 Accuracy: -m0
Conclusion: CDDA 99%
Signature: 2CD11181A70FA2DE9ADA81B9096E4CA9349688FC
FILE: 07 - Worried Down With the Blues.flac
Size: 44532812 Hash: 094EBAD305AEC3E89E6AB32DD886A61A Accuracy: -m0
Conclusion: CDDA 100%
Signature: 9A4A4A77122B1E98E634A3DB5F6F22878AED93AB
FILE: 06 - I Wonder.flac
Size: 36805459 Hash: 7FCBAF492C6D4F967E4EFC749BF30A87 Accuracy: -m0
Conclusion: CDDA 100%
Signature: 7EEFFF50C3FA24DD4304DBE91AA320A8B983DDC2
FILE: 05 - Sunny Monday.flac
Size: 36423447 Hash: 36EE3CD4B1F8E890A9C41462C84CF540 Accuracy: -m0
Conclusion: CDDA 100%
Signature: 5867913C97DE9019D5CF4D2261D71EE3D8313EE0
FILE: 04 - Same Old Blues.flac
Size: 28786874 Hash: 30C9A998A78B28078B9D6C9E6EF8B434 Accuracy: -m0
Conclusion: CDDA 99%
Signature: 2BD8F4721D0DF21FCD7090D9F23027DAAEEBED62
FILE: 03 - Feel So Damn Good.flac
Size: 25616005 Hash: 2113B087BAF5FB77E0B28BFDC8B58FD4 Accuracy: -m0
Conclusion: CDDA 100%
Signature: 1A1A7DE5C8178F5C40F763B824FD66A59B35EC96
FILE: 02 - Smooth Sailing.flac
Size: 30260370 Hash: 667BDCF1FE7F49C3FFC2D184031C46A0 Accuracy: -m0
Conclusion: CDDA 99%
Signature: 70003A9FF76C54A71A8CBFA4DE59DDD6B776A17A
FILE: 01 - Born to Play the Blues.flac
Size: 28195118 Hash: 1FB52ACE9E91D38B215D1EC3F266A814 Accuracy: -m0
Conclusion: CDDA 100%
Signature: 9897588FCC665660B0F8F40C8A4DB9F07F88128E

Об альбоме (сборнике)

Здесь биография на русском.
https://www.allmusic.com/album/born-to-play-the-blues-mw0000599321
After a brief detour with the Bluegills' duet album Meet Me at the Lake, Larry McCray returned to form with the storming Born to Play the Blues. Since his 1991 debut Ambition, McCray has been hailed as one of the great contemporary bluesmen of the '90s, and this record reminds us why. It isn't that he offers any innovations or surprises -- it's that he is a pure, no-nonsense bluesman, delivering solid guitar lines and soulful vocals. McCray also gets credit for not sticking with tried-and-true material, choosing to write his own songs and try out several tunes from Dave Steen and taking a stab at a Warren Hayes cover. Throughout it all, he plays and sings with passion and heart, confirming his position as one of the finest contemporary bluesmen around.


http://en.wikipedia.org/wiki/Larry_McCray
https://www.discogs.com/Larry-McCray-Born-To-Play-The-Blues/release/7748816
House Of Blues - 51416 14042 Format: CD, Album Country: US Released: 1998
Larry McCray на трекере
Здесь есть этот альбом с другим TOC, какое там издание и Peak level - не проверял, проблема скачать. Но блюзменов, подобных Larry McCray, нужно побольше! Как на обложке он не вмещается, маленькие рамки, так и его музыка заполняет и захватывает вас до предела, играет и поет он со страстью и большим сердцем!

Для скачивания файла отключите блокировку рекламы и перезагрузите страницу.

disable adblock Как отключить блокировку рекламы?

Скачать по магнет ссылке 363 MB 

Войти с помощью:

Загрузка...
Загрузка...


   
Текущее время: 18-Июн 13:35 :: Часовой пояс: UTC ± 0