LIK / Mass Funeral Evocation
Жанр: Death Metal
Носитель: CD
Страна-производитель диска (релиза): Германия
Год издания: 2015
Издатель (лейбл): War Anthem Records
Номер по каталогу: WAR067CD
Страна исполнителя (группы): Швеция
Аудиокодек: FLAC (*.flac)
Тип рипа: image+.cue
Битрейт аудио: lossless
Продолжительность: 00:35:33
Источник (релизер): Собственный Диск
Наличие сканов в содержимом раздачи: да
Треклист:
01.Serum 141
02.Le Morte Homme
03.Ghoul
04.Death Orgasmic
05.Sickening
06.Endless Oceans Of Blood
07.Behold The Beheaded
08.Necromancer
09.Skin Necrosis
10.Trail Of Entrails

Лог создания рипа

Exact Audio Copy V1.1 from 23. June 2015
Отчёт EAC об извлечении, выполненном 10. октября 2017, 20:25
Lik / Mass Funeral Evocation
Дисковод: PIONEER DVD-RW DVR-221L Adapter: 1 ID: 0
Режим чтения : Достоверность
Использование точного потока : Да
Отключение кэша аудио : Да
Использование указателей C2 : Нет
Коррекция смещения при чтении : 6
Способность читать области Lead-in и Lead-out : Нет
Заполнение пропущенных сэмплов тишиной : Да
Удаление блоков с тишиной в начале и конце : Нет
При вычислениях CRC использовались нулевые сэмплы : Да
Интерфейс : Встроенный Win32-интерфейс для Win NT/2000
Выходной формат : Пользовательский кодировщик
Выбранный битрейт : 1024 kBit/s
Качество : Высокий
Добавление ID3-тега : Нет
Утилита сжатия : C:\Program Files (x86)\Exact Audio Copy\FLAC\FLAC.EXE
Дополнительные параметры : -6 -V -T "ARTIST=%artist%" -T "TITLE=%title%" -T "ALBUM=%albumtitle%" -T "DATE=%year%" -T "TRACKNUMBER=%tracknr%" -T "GENRE=%genre%" -T "COMMENT=%comment%" -T "BAND=%albuminterpret%" -T "ALBUMARTIST=%albuminterpret%" -T "COMPOSER=%composer%" %haslyrics%--tag-from-file=LYRICS="%lyricsfile%"%haslyrics% -T "DISCNUMBER=%cdnumber%" -T "TOTALDISCS=%totalcds%" -T "TOTALTRACKS=%numtracks%" %hascover%--picture="%coverfile%"%hascover% %source% -o %dest%
TOC извлечённого CD
Трек | Старт | Длительность | Начальный сектор | Конечный сектор
---------------------------------------------------------------------
1 | 0:00.00 | 3:50.45 | 0 | 17294
2 | 3:50.45 | 4:12.07 | 17295 | 36201
3 | 8:02.52 | 2:19.00 | 36202 | 46626
4 | 10:21.52 | 2:58.00 | 46627 | 59976
5 | 13:19.52 | 4:36.00 | 59977 | 80676
6 | 17:55.52 | 4:24.00 | 80677 | 100476
7 | 22:19.52 | 2:56.00 | 100477 | 113676
8 | 25:15.52 | 2:29.00 | 113677 | 124851
9 | 27:44.52 | 4:23.23 | 124852 | 144599
10 | 32:08.00 | 3:24.46 | 144600 | 159945
Характеристики диапазона извлечения и сообщения об ошибках
Выбранный диапазон
Имя файла F:\EAC\zvbmxf\LIK-2015-Mass Funeral Evocation\Lik - Mass Funeral Evocation.wav
Пиковый уровень 100.0 %
Скорость извлечения 2.6 X
Качество диапазона 100.0 %
CRC теста 9915B765
CRC копии 9915B765
Копирование... OK
Ошибок не произошло
AccurateRip: сводка
Трек 1 : извлечено точно (доверие 2) [49B3F539] (AR v2)
Трек 2 : извлечено точно (доверие 2) [32C40115] (AR v2)
Трек 3 : извлечено точно (доверие 2) [ECCA3FD7] (AR v2)
Трек 4 : извлечено точно (доверие 2) [B4E18293] (AR v2)
Трек 5 : извлечено точно (доверие 2) [B6F61EC6] (AR v2)
Трек 6 : извлечено точно (доверие 2) [5E7D6357] (AR v2)
Трек 7 : извлечено точно (доверие 2) [B4EDCF2D] (AR v2)
Трек 8 : извлечено точно (доверие 2) [25CB1E0A] (AR v2)
Трек 9 : извлечено точно (доверие 2) [CE99A191] (AR v2)
Трек 10 : извлечено точно (доверие 2) [887BBBB6] (AR v2)
Все треки извлечены точно
Конец отчёта
---- CUETools DB Plugin V2.1.6
[CTDB TOCID: w_zw4nAmCIago5_VdMBEOQn163w-] found
Submit result: w_zw4nAmCIago5_VdMBEOQn163w- has been confirmed
Track | CTDB Status
1 | (12/12) Accurately ripped
2 | (12/12) Accurately ripped
3 | (12/12) Accurately ripped
4 | (12/12) Accurately ripped
5 | (12/12) Accurately ripped
6 | (12/12) Accurately ripped
7 | (12/12) Accurately ripped
8 | (12/12) Accurately ripped
9 | (12/12) Accurately ripped
10 | (12/12) Accurately ripped
==== Контрольная сумма отчёта 2134AB854ADE610610306E170CD9725CB115C747A91F1F68A59547A47A0CC349 ====
Доп. информация: CD из моей коллекции

Для скачивания файла отключите блокировку рекламы и перезагрузите страницу.

disable adblock Как отключить блокировку рекламы?

Скачать по магнет ссылке 279 MB 

Войти с помощью:

Загрузка...
Загрузка...


   
Текущее время: 21-Июн 10:39 :: Часовой пояс: UTC ± 0