Oulunkyla Big Band featuring Pepe Ahlqvist / Hip Shakin'
Жанр: Big Band, Blues, Jazz, Funk
Носитель: CD
Страна-производитель диска (релиза): Austria
Год издания: 1992
Издатель (лейбл): Finnlevy
Номер по каталогу: 300062
Страна исполнителя (группы): Finland
Аудиокодек: FLAC (*.flac)
Тип рипа: tracks+.cue
Битрейт аудио: lossless
Продолжительность: 00:53:06
Источник (релизер): свой диск
Наличие сканов в содержимом раздачи: да
Треклист:
01. Let's Have a Natural Ball (3:46)
02. So Excited (6:34)
03. Rebirth of Love (5:21)
04. Ain't That Lovin' You (2:57)
05. Hip Shakin' (6:09)
06. Michelangelo Blues (5:20)
07. Don't Come Closer (5:15)
08. Route 66 (4:17)
09. Let's Fake Love (3:48)
10. Bluescope (5:54)
11. 'Tain't Nobody's Bizness (3:52)

---------------------------------------------------------
Коллекция 16CD Pepe Ahlqvist находится здесь
WEB-релиз данного альбома здесь
---------------------------------------------------------

Лог создания рипа

Exact Audio Copy V1.2 from 12. August 2016
EAC extraction logfile from 2. September 2016, 21:29
Oulunkyla Big Band featuring Pepe Ahlqvist / Hip Shakin'
Used drive : ATAPI iHAS120 X Adapter: 1 ID: 0
Read mode : Secure
Utilize accurate stream : Yes
Defeat audio cache : Yes
Make use of C2 pointers : No
Read offset correction : 48
Overread into Lead-In and Lead-Out : No
Fill up missing offset samples with silence : Yes
Delete leading and trailing silent blocks : No
Null samples used in CRC calculations : Yes
Used interface : Native Win32 interface for Win NT & 2000
Gap handling : Appended to previous track
Used output format : User Defined Encoder
Selected bitrate : 128 kBit/s
Quality : High
Add ID3 tag : No
Command line compressor : C:\Program Files (x86)\Exact Audio Copy\Flac\flac.exe
Additional command line options : -8 -V -T "ARTIST=%artist%" -T "TITLE=%title%" -T "ALBUM=%albumtitle%" -T "DATE=%year%" -T "TRACKNUMBER=%tracknr%" -T "TOTALTRACKS=%numtracks%" -T "GENRE=%genre%" -T "ALBUMARTIST=%albumartist%" -T "ALBUM ARTIST=%albumartist%" -T "COMMENT=EAC Secure Mode, Test & Copy, AccurateRip, FLAC -8" %source%
TOC of the extracted CD
Track | Start | Length | Start sector | End sector
---------------------------------------------------------
1 | 0:00.00 | 3:45.40 | 0 | 16914
2 | 3:45.40 | 6:33.62 | 16915 | 46451
3 | 10:19.27 | 5:21.20 | 46452 | 70546
4 | 15:40.47 | 2:57.23 | 70547 | 83844
5 | 18:37.70 | 6:08.45 | 83845 | 111489
6 | 24:46.40 | 5:20.20 | 111490 | 135509
7 | 30:06.60 | 5:14.57 | 135510 | 159116
8 | 35:21.42 | 4:16.55 | 159117 | 178371
9 | 39:38.22 | 3:47.70 | 178372 | 195466
10 | 43:26.17 | 5:53.73 | 195467 | 222014
11 | 49:20.15 | 3:52.12 | 222015 | 239426
Track 1
Filename D:\Hip Shakin'\01 - Let's Have a Natural Ball.wav
Pre-gap length 0:00:02.00
Peak level 93.5 %
Extraction speed 4.4 X
Track quality 100.0 %
Test CRC 4221635B
Copy CRC 4221635B
Accurately ripped (confidence 1) [522A44C6] (AR v1)
Copy OK
Track 2
Filename D:\Hip Shakin'\02 - So Excited.wav
Peak level 95.3 %
Extraction speed 5.3 X
Track quality 100.0 %
Test CRC F04E7C6C
Copy CRC F04E7C6C
Accurately ripped (confidence 1) [274C0B91] (AR v1)
Copy OK
Track 3
Filename D:\Hip Shakin'\03 - Rebirth of Love.wav
Peak level 92.2 %
Extraction speed 5.8 X
Track quality 100.0 %
Test CRC ECE1B7D9
Copy CRC ECE1B7D9
Cannot be verified as accurate (confidence 1) [D8B757AC], AccurateRip returned [18204683] (AR v2)
Copy OK
Track 4
Filename D:\Hip Shakin'\04 - Ain't That Lovin' You.wav
Pre-gap length 0:00:00.50
Peak level 90.6 %
Extraction speed 3.7 X
Track quality 99.9 %
Test CRC 4622F5B9
Copy CRC 4622F5B9
Accurately ripped (confidence 1) [475A9640] (AR v1)
Copy OK
Track 5
Filename D:\Hip Shakin'\05 - Hip Shakin'.wav
Peak level 92.5 %
Extraction speed 6.7 X
Track quality 100.0 %
Test CRC F8966961
Copy CRC F8966961
Accurately ripped (confidence 1) [B5CEEB93] (AR v1)
Copy OK
Track 6
Filename D:\Hip Shakin'\06 - Michelangelo Blues.wav
Pre-gap length 0:00:00.30
Peak level 92.8 %
Extraction speed 7.0 X
Track quality 100.0 %
Test CRC BB5B9E13
Copy CRC BB5B9E13
Accurately ripped (confidence 1) [3A75B166] (AR v1)
Copy OK
Track 7
Filename D:\Hip Shakin'\07 - Don't Come Closer.wav
Peak level 98.8 %
Extraction speed 7.3 X
Track quality 100.0 %
Test CRC BA73B009
Copy CRC BA73B009
Accurately ripped (confidence 1) [D7348779] (AR v1)
Copy OK
Track 8
Filename D:\Hip Shakin'\08 - Route 66.wav
Pre-gap length 0:00:00.20
Peak level 92.7 %
Extraction speed 7.5 X
Track quality 100.0 %
Test CRC 6E1FF429
Copy CRC 6E1FF429
Accurately ripped (confidence 1) [DFBC4D38] (AR v1)
Copy OK
Track 9
Filename D:\Hip Shakin'\09 - Let's Fake Love.wav
Peak level 99.3 %
Extraction speed 7.7 X
Track quality 100.0 %
Test CRC 7D69A3D7
Copy CRC 7D69A3D7
Accurately ripped (confidence 1) [6A42EFD5] (AR v1)
Copy OK
Track 10
Filename D:\Hip Shakin'\10 - Bluescope.wav
Pre-gap length 0:00:02.57
Peak level 100.0 %
Extraction speed 8.4 X
Track quality 100.0 %
Test CRC B7CB4099
Copy CRC B7CB4099
Accurately ripped (confidence 1) [D9855553] (AR v1)
Copy OK
Track 11
Filename D:\Hip Shakin'\11 - 'Tain't Nobody's Bizness.wav
Pre-gap length 0:00:01.63
Peak level 100.0 %
Extraction speed 8.2 X
Track quality 100.0 %
Test CRC D049DBBA
Copy CRC D049DBBA
Accurately ripped (confidence 1) [669161AB] (AR v1)
Copy OK
10 track(s) accurately ripped
1 track(s) could not be verified as accurate
Some tracks could not be verified as accurate
No errors occurred
End of status report
---- CUETools DB Plugin V2.1.6
[CTDB TOCID: 48FFC_iAOF2UBd8bZcmDuayPZ3U-] disk not present in database
Submit result: 48FFC_iAOF2UBd8bZcmDuayPZ3U- has been uploaded
==== Log checksum 93B89A291A89FEC3D732BC9978CB4D69820ECD6B55FF9E6E8F293769E3E9627A ====

Содержание индексной карты (.CUE)

REM GENRE "Jazz, Blues, Big Band"
REM DATE 1992
REM DISCID 8F0C780B
REM COMMENT "ExactAudioCopy v1.2"
PERFORMER "Oulunkyla Big Band featuring Pepe Ahlqvist"
TITLE "Hip Shakin'"
REM COMPOSER ""
FILE "01 - Let's Have a Natural Ball.wav" WAVE
TRACK 01 AUDIO
TITLE "Let's Have a Natural Ball"
PERFORMER "Oulunkyla Big Band featuring Pepe Ahlqvist"
REM COMPOSER ""
INDEX 01 00:00:00
FILE "02 - So Excited.wav" WAVE
TRACK 02 AUDIO
TITLE "So Excited"
PERFORMER "Oulunkyla Big Band featuring Pepe Ahlqvist"
REM COMPOSER ""
INDEX 01 00:00:00
FILE "03 - Rebirth of Love.wav" WAVE
TRACK 03 AUDIO
TITLE "Rebirth of Love"
PERFORMER "Oulunkyla Big Band featuring Pepe Ahlqvist"
REM COMPOSER ""
INDEX 01 00:00:00
TRACK 04 AUDIO
TITLE "Ain't That Lovin' You"
PERFORMER "Oulunkyla Big Band featuring Pepe Ahlqvist"
REM COMPOSER ""
INDEX 00 05:20:45
FILE "04 - Ain't That Lovin' You.wav" WAVE
INDEX 01 00:00:00
FILE "05 - Hip Shakin'.wav" WAVE
TRACK 05 AUDIO
TITLE "Hip Shakin'"
PERFORMER "Oulunkyla Big Band featuring Pepe Ahlqvist"
REM COMPOSER ""
INDEX 01 00:00:00
TRACK 06 AUDIO
TITLE "Michelangelo Blues"
PERFORMER "Oulunkyla Big Band featuring Pepe Ahlqvist"
REM COMPOSER ""
INDEX 00 06:08:15
FILE "06 - Michelangelo Blues.wav" WAVE
INDEX 01 00:00:00
FILE "07 - Don't Come Closer.wav" WAVE
TRACK 07 AUDIO
TITLE "Don't Come Closer"
PERFORMER "Oulunkyla Big Band featuring Pepe Ahlqvist"
REM COMPOSER ""
INDEX 01 00:00:00
TRACK 08 AUDIO
TITLE "Route 66"
PERFORMER "Oulunkyla Big Band featuring Pepe Ahlqvist"
REM COMPOSER ""
INDEX 00 05:14:37
FILE "08 - Route 66.wav" WAVE
INDEX 01 00:00:00
FILE "09 - Let's Fake Love.wav" WAVE
TRACK 09 AUDIO
TITLE "Let's Fake Love"
PERFORMER "Oulunkyla Big Band featuring Pepe Ahlqvist"
REM COMPOSER ""
INDEX 01 00:00:00
TRACK 10 AUDIO
TITLE "Bluescope"
PERFORMER "Oulunkyla Big Band featuring Pepe Ahlqvist"
REM COMPOSER ""
INDEX 00 03:45:13
FILE "10 - Bluescope.wav" WAVE
INDEX 01 00:00:00
TRACK 11 AUDIO
TITLE "'Tain't Nobody's Bizness"
PERFORMER "Oulunkyla Big Band featuring Pepe Ahlqvist"
REM COMPOSER ""
INDEX 00 05:52:10
FILE "11 - 'Tain't Nobody's Bizness.wav" WAVE
INDEX 01 00:00:00

Состав

Saxes:
Marko Vasama as I (solo on 3)
Mikko Suhonen as II
Heikki Pohto ts I (solos on 1, 4, 5, 9)
Aleksi Ahoniemi ts II (solo on 8)
Antti Snellman bs
Trumpets:
Raimo Korhonen
Martti Outinen
Markku Renko
Tero Saarti (solo on 8)
Pekka Annanperä (solo on 5)
Jari Nurminen (solo on 4)
Jukka Tiirikainen (on 2)
Trombones:
Petri Aarnio I
Mika Terho II
Juha Mursula III
Janne Laine IV
Risto Sinkkonen piano (solo on 5), synth
Jasse Varpama organ on 2, 3, 6,
piano on 3, synth on 3, 10
Visa-Pekka Mertanen piano on 1, 8,
organ and piano on 11
Jarmo Hynninen guitar
Hannu Rantanen bass
Jari Kettunen drums
Juha Tanninen percussion
Speedy Saarinen fretless guitar on 3
Marjo-Riitta Kervinen backing vocals on 9
Pepe Ahlqvist vocals, harmonica

To download the file disable ad blocking, and reload the page.

disable adblock How to disable ad blocking?

Download by magnet link 406 MB Download Torrent

Login using:

Similar topics



   
Current time is: 18-Oct 20:21 :: All times are UTC ± 0