Gina Sicilia / Tug Of War
Жанр: Rhythm & Blues
Носитель: CD
Страна-производитель диска (релиза): Russia
Год издания: 2017
Издатель (лейбл): Time Blues
Аудиокодек: FLAC (*.flac)
Тип рипа: image+.cue
Битрейт аудио: lossless
Продолжительность: 39'47''
Источник (релизер): BluesHouse
Наличие сканов в содержимом раздачи: да
Треклист:
CD: Gina Sicilia - Tug Of War
01. I Don't Want To Be In Love [0:03:50.04]
02. Damaging Me [0:04:38.62]
03. He Called Me Baby [0:04:13.56]
04. I'll Stand Up [0:03:43.07]
05. Never Gonna End [0:03:36.65]
06. I Cried [0:03:55.72]
07. They Never Pay Me [0:03:35.03]
08. Abandoned [0:03:00.34]
09. Tell Him [0:03:02.39]
10. All My Loving [0:03:13.61]
11. Heaven [0:02:55.36]

Лог создания рипа

Exact Audio Copy V1.3 from 2. September 2016
Отчёт EAC об извлечении, выполненном 3. октября 2017, 16:30
Gina Sicilia / Tug Of War
Дисковод: ATAPI iHAS122 C Adapter: 1 ID: 0
Режим чтения : Достоверность
Использование точного потока : Да
Отключение кэша аудио : Да
Использование указателей C2 : Нет
Коррекция смещения при чтении : 6
Способность читать области Lead-in и Lead-out : Нет
Заполнение пропущенных сэмплов тишиной : Да
Удаление блоков с тишиной в начале и конце : Нет
При вычислениях CRC использовались нулевые сэмплы : Да
Интерфейс : Встроенный Win32-интерфейс для Win NT/2000
Выходной формат : Пользовательский кодировщик
Выбранный битрейт : 768 kBit/s
Качество : Высокий
Добавление ID3-тега : Нет
Утилита сжатия : C:\Program Files\Exact Audio Copy\FLAC\FLAC.EXE
Дополнительные параметры : -6 -V -T "ARTIST=%artist%" -T "TITLE=%title%" -T "ALBUM=%albumtitle%" -T "DATE=%year%" -T "TRACKNUMBER=%tracknr%" -T "GENRE=%genre%" -T "COMMENT=%comment%" -T "BAND=%albuminterpret%" -T "ALBUMARTIST=%albuminterpret%" -T "COMPOSER=%composer%" %haslyrics%--tag-from-file=LYRICS="%lyricsfile%"%haslyrics% -T "DISCNUMBER=%cdnumber%" -T "TOTALDISCS=%totalcds%" -T "TOTALTRACKS=%numtracks%" %hascover%--picture="%coverfile%"%hascover% %source% -o %dest%
TOC извлечённого CD
Трек | Старт | Длительность | Начальный сектор | Конечный сектор
---------------------------------------------------------------------
1 | 0:00.00 | 3:50.04 | 0 | 17253
2 | 3:50.04 | 4:38.62 | 17254 | 38165
3 | 8:28.66 | 4:13.56 | 38166 | 57196
4 | 12:42.47 | 3:43.07 | 57197 | 73928
5 | 16:25.54 | 3:36.65 | 73929 | 90193
6 | 20:02.44 | 3:55.72 | 90194 | 107890
7 | 23:58.41 | 3:35.03 | 107891 | 124018
8 | 27:33.44 | 3:00.34 | 124019 | 137552
9 | 30:34.03 | 3:02.39 | 137553 | 151241
10 | 33:36.42 | 3:13.61 | 151242 | 165777
11 | 36:50.28 | 2:55.36 | 165778 | 178938
Характеристики диапазона извлечения и сообщения об ошибках
Выбранный диапазон
Имя файла C:\Users\Titanium\Desktop\Gina Sicilia\Gina Sicilia - Tug Of War.wav
Пиковый уровень 100.0 %
Скорость извлечения 7.0 X
Качество диапазона 100.0 %
CRC теста CC137664
CRC копии CC137664
Копирование... OK
Ошибок не произошло
Конец отчёта
---- CUETools DB Plugin V2.1.6
[CTDB TOCID: 12k98lIx9pAQwHV1.EJ.EneezrU-] found
Submit result: 12k98lIx9pAQwHV1.EJ.EneezrU- has been confirmed
Track | CTDB Status
1 | (3/3) Accurately ripped
2 | (3/3) Accurately ripped
3 | (3/3) Accurately ripped
4 | (3/3) Accurately ripped
5 | (3/3) Accurately ripped
6 | (3/3) Accurately ripped
7 | (3/3) Accurately ripped
8 | (3/3) Accurately ripped
9 | (3/3) Accurately ripped
10 | (3/3) Accurately ripped
11 | (3/3) Accurately ripped
==== Контрольная сумма отчёта F7E88AAF287CE4D4565F6E8772707BB0C9D6938641A79673A195633F1552AB7F ====

Содержание индексной карты (.CUE)

REM GENRE Blues
REM DATE 2017
REM DISCID 7D09510B
REM COMMENT "ExactAudioCopy v1.3"
PERFORMER "Gina Sicilia"
TITLE "Tug Of War"
REM COMPOSER ""
FILE "Gina Sicilia - Tug Of War.flac" WAVE
TRACK 01 AUDIO
TITLE "I Don't Want To Be In Love"
PERFORMER "Gina Sicilia"
REM COMPOSER ""
INDEX 01 00:00:00
TRACK 02 AUDIO
TITLE "Damaging Me"
PERFORMER "Gina Sicilia"
REM COMPOSER ""
INDEX 01 03:50:04
TRACK 03 AUDIO
TITLE "He Called Me Baby"
PERFORMER "Gina Sicilia"
REM COMPOSER ""
INDEX 01 08:28:66
TRACK 04 AUDIO
TITLE "I'll Stand Up"
PERFORMER "Gina Sicilia"
REM COMPOSER ""
INDEX 01 12:42:47
TRACK 05 AUDIO
TITLE "Never Gonna End"
PERFORMER "Gina Sicilia"
REM COMPOSER ""
INDEX 01 16:25:54
TRACK 06 AUDIO
TITLE "I Cried"
PERFORMER "Gina Sicilia"
REM COMPOSER ""
INDEX 01 20:02:44
TRACK 07 AUDIO
TITLE "They Never Pay Me"
PERFORMER "Gina Sicilia"
REM COMPOSER ""
INDEX 01 23:58:41
TRACK 08 AUDIO
TITLE "Abandoned"
PERFORMER "Gina Sicilia"
REM COMPOSER ""
INDEX 01 27:33:44
TRACK 09 AUDIO
TITLE "Tell Him"
PERFORMER "Gina Sicilia"
REM COMPOSER ""
INDEX 01 30:34:03
TRACK 10 AUDIO
TITLE "All My Loving"
PERFORMER "Gina Sicilia"
REM COMPOSER ""
INDEX 01 33:36:42
TRACK 11 AUDIO
TITLE "Heaven"
PERFORMER "Gina Sicilia"
REM COMPOSER ""
INDEX 01 36:50:28

Лог проверки качества

-----------------------
DON'T MODIFY THIS FILE
-----------------------
PERFORMER: auCDtect Task Manager, ver. 1.6.0 RC1 build 1.6.0.1
Copyright (c) 2008-2010 y-soft. All rights reserved
http://y-soft.org
ANALYZER: auCDtect: CD records authenticity detector, version 0.8.2
Copyright (c) 2004 Oleg Berngardt. All rights reserved.
Copyright (c) 2004 Alexander Djourik. All rights reserved.
FILE: Gina Sicilia - Tug Of War.flac
Size: 267507786 Hash: CAC2561B0C9FE4C61409A4EC21CA4E43 Accuracy: -m0
Conclusion: CDDA 99%
Signature: 4821ABF3EEDBC173DC2EADE322018AC1B9A0F806

Для скачивания файла отключите блокировку рекламы и перезагрузите страницу.

disable adblock Как отключить блокировку рекламы?

Скачать по магнет ссылке 292 MB 

Войти с помощью:

Загрузка...
Загрузка...


   
Текущее время: 21-Июн 10:34 :: Часовой пояс: UTC ± 0