Deborah Bonham / Duchess (iTunes version)
Жанр: Rockin' Blues
Носитель: CD
Страна-производитель диска (релиза): Russia
Год издания: 2017
Издатель (лейбл): Time Blues
Аудиокодек: FLAC (*.flac)
Тип рипа: image+.cue
Битрейт аудио: lossless
Продолжительность: 53'32''
Источник (релизер): BluesHouse
Наличие сканов в содержимом раздачи: да
Треклист:
CD: Deborah Bonham - Duchess (iTunes version)
01. Grace [0:03:56.69]
02. Jack Past 8 [0:03:03.45]
03. Hole In My Heart [0:02:38.40]
04. Hold On [0:04:15.03]
05. Love Lies [0:03:23.04]
06. Pretty Thing [0:03:09.40]
07. Love You So [0:03:56.42]
08. How Do You Feel [0:04:41.55]
09. Chains [0:03:12.65]
10. Duchess And The Shufflemeister [0:04:53.40]
11. Waiting So Long [0:04:14.10]
12. [If You] Had A LIttle Love [0:03:37.16]
13. Blue [0:02:17.63]
14. The Old Hyde Revisited [bonus track] [0:06:10.04]

Лог создания рипа

Exact Audio Copy V1.3 from 2. September 2016
Отчёт EAC об извлечении, выполненном 3. октября 2017, 16:46
Deborah Bonham / Duchess (iTunes version)
Дисковод: PLEXTOR DVDR PX-891SA Adapter: 1 ID: 2
Режим чтения : Достоверность
Использование точного потока : Да
Отключение кэша аудио : Да
Использование указателей C2 : Нет
Коррекция смещения при чтении : 6
Способность читать области Lead-in и Lead-out : Нет
Заполнение пропущенных сэмплов тишиной : Да
Удаление блоков с тишиной в начале и конце : Нет
При вычислениях CRC использовались нулевые сэмплы : Да
Интерфейс : Встроенный Win32-интерфейс для Win NT/2000
Выходной формат : Пользовательский кодировщик
Выбранный битрейт : 768 kBit/s
Качество : Высокий
Добавление ID3-тега : Нет
Утилита сжатия : C:\Program Files (x86)\Exact Audio Copy\FLAC\FLAC.EXE
Дополнительные параметры : -6 -V -T "ARTIST=%artist%" -T "TITLE=%title%" -T "ALBUM=%albumtitle%" -T "DATE=%year%" -T "TRACKNUMBER=%tracknr%" -T "GENRE=%genre%" -T "COMMENT=%comment%" -T "BAND=%albuminterpret%" -T "ALBUMARTIST=%albuminterpret%" -T "COMPOSER=%composer%" %haslyrics%--tag-from-file=LYRICS="%lyricsfile%"%haslyrics% -T "DISCNUMBER=%cdnumber%" -T "TOTALDISCS=%totalcds%" -T "TOTALTRACKS=%numtracks%" %hascover%--picture="%coverfile%"%hascover% %source% -o %dest%
TOC извлечённого CD
Трек | Старт | Длительность | Начальный сектор | Конечный сектор
---------------------------------------------------------------------
1 | 0:00.00 | 3:56.69 | 0 | 17768
2 | 3:56.69 | 3:03.45 | 17769 | 31538
3 | 7:00.39 | 2:38.40 | 31539 | 43428
4 | 9:39.04 | 4:15.03 | 43429 | 62556
5 | 13:54.07 | 3:23.04 | 62557 | 77785
6 | 17:17.11 | 3:09.40 | 77786 | 92000
7 | 20:26.51 | 3:56.42 | 92001 | 109742
8 | 24:23.18 | 4:41.55 | 109743 | 130872
9 | 29:04.73 | 3:12.65 | 130873 | 145337
10 | 32:17.63 | 4:53.40 | 145338 | 167352
11 | 37:11.28 | 4:14.10 | 167353 | 186412
12 | 41:25.38 | 3:37.16 | 186413 | 202703
13 | 45:02.54 | 2:17.63 | 202704 | 213041
14 | 47:20.42 | 6:10.04 | 213042 | 240795
Характеристики диапазона извлечения и сообщения об ошибках
Выбранный диапазон
Имя файла K:\My Uploads-11\Deborah Bonham - Duchess (iTunes version) 2017 53'32''\Deborah Bonham - Duchess (iTunes version).wav
Пиковый уровень 98.7 %
Скорость извлечения 3.4 X
Качество диапазона 100.0 %
CRC теста 9B29C9CA
CRC копии 9B29C9CA
Копирование... OK
Ошибок не произошло
Конец отчёта
---- CUETools DB Plugin V2.1.6
[CTDB TOCID: LSNLlhpSN.qBMiQFRTSLNjtJUQs-] found
Submit result: LSNLlhpSN.qBMiQFRTSLNjtJUQs- has been confirmed
Track | CTDB Status
1 | (2/2) Accurately ripped
2 | (2/2) Accurately ripped
3 | (2/2) Accurately ripped
4 | (2/2) Accurately ripped
5 | (2/2) Accurately ripped
6 | (2/2) Accurately ripped
7 | (2/2) Accurately ripped
8 | (2/2) Accurately ripped
9 | (2/2) Accurately ripped
10 | (2/2) Accurately ripped
11 | (2/2) Accurately ripped
12 | (2/2) Accurately ripped
13 | (2/2) Accurately ripped
14 | (2/2) Accurately ripped
==== Контрольная сумма отчёта F09B5C9EE1BEDE0C5779E21A450F2BC02FD82A411510CEED6B03E63D848372AD ====

Содержание индексной карты (.CUE)

REM GENRE Blues
REM DATE 2017
REM DISCID C40C8A0E
REM COMMENT "ExactAudioCopy v1.3"
PERFORMER "Deborah Bonham"
TITLE "Duchess (iTunes version)"
REM COMPOSER ""
FILE "Deborah Bonham - Duchess (iTunes version).flac" WAVE
TRACK 01 AUDIO
TITLE "Grace"
PERFORMER "Deborah Bonham"
REM COMPOSER ""
INDEX 01 00:00:00
TRACK 02 AUDIO
TITLE "Jack Past 8"
PERFORMER "Deborah Bonham"
REM COMPOSER ""
INDEX 01 03:56:69
TRACK 03 AUDIO
TITLE "Hole In My Heart"
PERFORMER "Deborah Bonham"
REM COMPOSER ""
INDEX 01 07:00:39
TRACK 04 AUDIO
TITLE "Hold On"
PERFORMER "Deborah Bonham"
REM COMPOSER ""
INDEX 01 09:39:04
TRACK 05 AUDIO
TITLE "Love Lies"
PERFORMER "Deborah Bonham"
REM COMPOSER ""
INDEX 01 13:54:07
TRACK 06 AUDIO
TITLE "Pretty Thing"
PERFORMER "Deborah Bonham"
REM COMPOSER ""
INDEX 01 17:17:11
TRACK 07 AUDIO
TITLE "Love You So"
PERFORMER "Deborah Bonham"
REM COMPOSER ""
INDEX 01 20:26:51
TRACK 08 AUDIO
TITLE "How Do You Feel"
PERFORMER "Deborah Bonham"
REM COMPOSER ""
INDEX 01 24:23:18
TRACK 09 AUDIO
TITLE "Chains"
PERFORMER "Deborah Bonham"
REM COMPOSER ""
INDEX 01 29:04:73
TRACK 10 AUDIO
TITLE "Duchess And The Shufflemeister"
PERFORMER "Deborah Bonham"
REM COMPOSER ""
INDEX 01 32:17:63
TRACK 11 AUDIO
TITLE "Waiting So Long"
PERFORMER "Deborah Bonham"
REM COMPOSER ""
INDEX 01 37:11:28
TRACK 12 AUDIO
TITLE "[If You] Had A LIttle Love"
PERFORMER "Deborah Bonham"
REM COMPOSER ""
INDEX 01 41:25:38
TRACK 13 AUDIO
TITLE "Blue"
PERFORMER "Deborah Bonham"
REM COMPOSER ""
INDEX 01 45:02:54
TRACK 14 AUDIO
TITLE "The Old Hyde Revisited [bonus track]"
PERFORMER "Deborah Bonham"
REM COMPOSER ""
INDEX 01 47:20:42

Лог проверки качества


Доп. информация: Альбом вышел в 2008 году, переиздан в 2017

Для скачивания файла отключите блокировку рекламы и перезагрузите страницу.

disable adblock Как отключить блокировку рекламы?

Скачать по магнет ссылке 344 MB 

Войти с помощью:



   
Текущее время: 14-Авг 19:40 :: Часовой пояс: UTC ± 0