Deborah Bonham / Spirit
Жанр: Rockin' Blues
Носитель: CD
Страна-производитель диска (релиза): Russia
Год издания: 2017
Издатель (лейбл): Blues Time
Аудиокодек: FLAC (*.flac)
Тип рипа: image+.cue
Битрейт аудио: lossless
Продолжительность: 57'02''
Источник (релизер): BluesHouse
Наличие сканов в содержимом раздачи: да
Треклист:
CD: Deborah Bonham - Spirit
01. Fly [0:02:53.66]
02. Painbirds [0:03:46.68]
03. Feel So Alive [0:02:59.72]
04. Spirit In Me [0:03:37.12]
05. Killing Fields [0:03:31.20]
06. Take Me Down [0:04:00.71]
07. Bring Out The Joy [0:04:40.46]
08. What It Feels [0:02:29.13]
09. Stop Now [0:03:55.21]
10. I Won't Let You Down [0:04:01.05]
11. I Need Love [0:04:34.36]
12. Lightning Ray [0:04:44.07]
13. Good Times [0:04:14.42]
14. Lay Me Down [0:04:28.43]
15. This Is My Life [0:03:02.29]

Лог создания рипа

Exact Audio Copy V1.3 from 2. September 2016
Отчёт EAC об извлечении, выполненном 3. октября 2017, 21:03
Deborah Bonham / Spirit
Дисковод: Optiarc DVD RW AD-7240S Adapter: 1 ID: 1
Режим чтения : Достоверность
Использование точного потока : Да
Отключение кэша аудио : Да
Использование указателей C2 : Нет
Коррекция смещения при чтении : 6
Способность читать области Lead-in и Lead-out : Нет
Заполнение пропущенных сэмплов тишиной : Да
Удаление блоков с тишиной в начале и конце : Нет
При вычислениях CRC использовались нулевые сэмплы : Да
Интерфейс : Встроенный Win32-интерфейс для Win NT/2000
Выходной формат : Пользовательский кодировщик
Выбранный битрейт : 768 kBit/s
Качество : Высокий
Добавление ID3-тега : Нет
Утилита сжатия : C:\Program Files (x86)\Exact Audio Copy\FLAC\FLAC.EXE
Дополнительные параметры : -6 -V -T "ARTIST=%artist%" -T "TITLE=%title%" -T "ALBUM=%albumtitle%" -T "DATE=%year%" -T "TRACKNUMBER=%tracknr%" -T "GENRE=%genre%" -T "COMMENT=%comment%" -T "BAND=%albuminterpret%" -T "ALBUMARTIST=%albuminterpret%" -T "COMPOSER=%composer%" %haslyrics%--tag-from-file=LYRICS="%lyricsfile%"%haslyrics% -T "DISCNUMBER=%cdnumber%" -T "TOTALDISCS=%totalcds%" -T "TOTALTRACKS=%numtracks%" %hascover%--picture="%coverfile%"%hascover% %source% -o %dest%
TOC извлечённого CD
Трек | Старт | Длительность | Начальный сектор | Конечный сектор
---------------------------------------------------------------------
1 | 0:00.00 | 2:53.66 | 0 | 13040
2 | 2:53.66 | 3:46.68 | 13041 | 30058
3 | 6:40.59 | 2:59.72 | 30059 | 43555
4 | 9:40.56 | 3:37.12 | 43556 | 59842
5 | 13:17.68 | 3:31.20 | 59843 | 75687
6 | 16:49.13 | 4:00.71 | 75688 | 93758
7 | 20:50.09 | 4:40.46 | 93759 | 114804
8 | 25:30.55 | 2:29.13 | 114805 | 125992
9 | 27:59.68 | 3:55.21 | 125993 | 143638
10 | 31:55.14 | 4:01.05 | 143639 | 161718
11 | 35:56.19 | 4:34.36 | 161719 | 182304
12 | 40:30.55 | 4:44.07 | 182305 | 203611
13 | 45:14.62 | 4:14.42 | 203612 | 222703
14 | 49:29.29 | 4:28.43 | 222704 | 242846
15 | 53:57.72 | 3:02.29 | 242847 | 256525
Характеристики диапазона извлечения и сообщения об ошибках
Выбранный диапазон
Имя файла K:\My Uploads-11\Deborah Bonham - Spirit - 2017 57'02''\Deborah Bonham - Spirit.wav
Пиковый уровень 100.0 %
Скорость извлечения 3.5 X
Качество диапазона 99.9 %
CRC теста 9A334725
CRC копии 9A334725
Копирование... OK
Ошибок не произошло
Конец отчёта
---- CUETools DB Plugin V2.1.6
[CTDB TOCID: B3ZEB9hnsGrzb1BQsVp68_2r0Sg-] found
Submit result: B3ZEB9hnsGrzb1BQsVp68_2r0Sg- has been confirmed
Track | CTDB Status
1 | (1/1) Accurately ripped
2 | (1/1) Accurately ripped
3 | (1/1) Accurately ripped
4 | (1/1) Accurately ripped
5 | (1/1) Accurately ripped
6 | (1/1) Accurately ripped
7 | (1/1) Accurately ripped
8 | (1/1) Accurately ripped
9 | (1/1) Accurately ripped
10 | (1/1) Accurately ripped
11 | (1/1) Accurately ripped
12 | (1/1) Accurately ripped
13 | (1/1) Accurately ripped
14 | (1/1) Accurately ripped
15 | (1/1) Accurately ripped
==== Контрольная сумма отчёта 64FDE3E309B32E079AECC29D50ED4D4FA08640286F1F17AF39A3FC70AA667402 ====

Содержание индексной карты (.CUE)

REM GENRE Blues
REM DATE 2017
REM DISCID C60D5C0F
REM COMMENT "ExactAudioCopy v1.3"
PERFORMER "Deborah Bonham"
TITLE "Spirit"
REM COMPOSER ""
FILE "Deborah Bonham - Spirit.flac" WAVE
TRACK 01 AUDIO
TITLE "Fly"
PERFORMER "Deborah Bonham"
REM COMPOSER ""
INDEX 01 00:00:00
TRACK 02 AUDIO
TITLE "Painbirds"
PERFORMER "Deborah Bonham"
REM COMPOSER ""
INDEX 01 02:53:66
TRACK 03 AUDIO
TITLE "Feel So Alive"
PERFORMER "Deborah Bonham"
REM COMPOSER ""
INDEX 01 06:40:59
TRACK 04 AUDIO
TITLE "Spirit In Me"
PERFORMER "Deborah Bonham"
REM COMPOSER ""
INDEX 01 09:40:56
TRACK 05 AUDIO
TITLE "Killing Fields"
PERFORMER "Deborah Bonham"
REM COMPOSER ""
INDEX 01 13:17:68
TRACK 06 AUDIO
TITLE "Take Me Down"
PERFORMER "Deborah Bonham"
REM COMPOSER ""
INDEX 01 16:49:13
TRACK 07 AUDIO
TITLE "Bring Out The Joy"
PERFORMER "Deborah Bonham"
REM COMPOSER ""
INDEX 01 20:50:09
TRACK 08 AUDIO
TITLE "What It Feels"
PERFORMER "Deborah Bonham"
REM COMPOSER ""
INDEX 01 25:30:55
TRACK 09 AUDIO
TITLE "Stop Now"
PERFORMER "Deborah Bonham"
REM COMPOSER ""
INDEX 01 27:59:68
TRACK 10 AUDIO
TITLE "I Won't Let You Down"
PERFORMER "Deborah Bonham"
REM COMPOSER ""
INDEX 01 31:55:14
TRACK 11 AUDIO
TITLE "I Need Love"
PERFORMER "Deborah Bonham"
REM COMPOSER ""
INDEX 01 35:56:19
TRACK 12 AUDIO
TITLE "Lightning Ray"
PERFORMER "Deborah Bonham"
REM COMPOSER ""
INDEX 01 40:30:55
TRACK 13 AUDIO
TITLE "Good Times"
PERFORMER "Deborah Bonham"
REM COMPOSER ""
INDEX 01 45:14:62
TRACK 14 AUDIO
TITLE "Lay Me Down"
PERFORMER "Deborah Bonham"
REM COMPOSER ""
INDEX 01 49:29:29
TRACK 15 AUDIO
TITLE "This Is My Life"
PERFORMER "Deborah Bonham"
REM COMPOSER ""
INDEX 01 53:57:72

Лог проверки качества

-----------------------
DON'T MODIFY THIS FILE
-----------------------
PERFORMER: auCDtect Task Manager, ver. 1.6.0 RC1 build 1.6.0.1
Copyright (c) 2008-2010 y-soft. All rights reserved
http://y-soft.org
ANALYZER: auCDtect: CD records authenticity detector, version 0.8.2
Copyright (c) 2004 Oleg Berngardt. All rights reserved.
Copyright (c) 2004 Alexander Djourik. All rights reserved.
FILE: Deborah Bonham - Spirit.flac
Size: 401477883 Hash: 108E57145227D2204ED37A231598DFA5 Accuracy: -m0
Conclusion: CDDA 100%
Signature: F44ECEF0642B882C719F81ACA06BE3F62B617C78

Скриншот спектра частот

Альбом вышел в 2014 году, переиздан в 2017 ...

To download the file disable ad blocking, and reload the page.

disable adblock How to disable ad blocking?

Download by magnet link 432 MB Download Torrent

Login using:



   
Current time is: 18-Oct 05:12 :: All times are UTC ± 0