Deborah Bonham / The Old Hyde
Жанр: Rockin' Blues
Носитель: CD
Страна-производитель диска (релиза): Russia
Год издания: 2012
Издатель (лейбл): Time Blues
Аудиокодек: FLAC (*.flac)
Тип рипа: image+.cue
Битрейт аудио: lossless
Продолжительность: 74'58''
Источник (релизер): BluesHouse
Наличие сканов в содержимом раздачи: да
Треклист:
CD: Deborah Bonham - The Old Hyde
01. Shit Happens [0:04:42.16]
02. Anything [0:04:08.62]
03. Go Now [0:04:25.33]
04. Need Your Love [0:06:00.63]
05. Black Coffee [0:04:21.33]
06. No Angel [0:04:37.24]
07. Devil's In New Orleans [0:03:47.31]
08. What We've Got [0:03:49.52]
09. Open Up Your Heart [0:04:31.20]
10. Without You [0:03:48.51]
11. Religion [0:04:52.53]
12. Ten Steps [0:04:37.48]
13. The Old Hyde [0:06:00.18]
14. Battle Of Evermore (bonus) [0:07:03.22]
15. Stay With Me Baby (bonus) [0:03:47.67]
16. Songbird (bonus) [0:04:21.29]

Лог создания рипа

Exact Audio Copy V1.3 from 2. September 2016
Отчёт EAC об извлечении, выполненном 3. октября 2017, 19:37
Deborah Bonham / The Old Hyde
Дисковод: ATAPI iHAS122 C Adapter: 1 ID: 0
Режим чтения : Достоверность
Использование точного потока : Да
Отключение кэша аудио : Да
Использование указателей C2 : Нет
Коррекция смещения при чтении : 6
Способность читать области Lead-in и Lead-out : Нет
Заполнение пропущенных сэмплов тишиной : Да
Удаление блоков с тишиной в начале и конце : Нет
При вычислениях CRC использовались нулевые сэмплы : Да
Интерфейс : Встроенный Win32-интерфейс для Win NT/2000
Выходной формат : Пользовательский кодировщик
Выбранный битрейт : 768 kBit/s
Качество : Высокий
Добавление ID3-тега : Нет
Утилита сжатия : C:\Program Files\Exact Audio Copy\FLAC\FLAC.EXE
Дополнительные параметры : -6 -V -T "ARTIST=%artist%" -T "TITLE=%title%" -T "ALBUM=%albumtitle%" -T "DATE=%year%" -T "TRACKNUMBER=%tracknr%" -T "GENRE=%genre%" -T "COMMENT=%comment%" -T "BAND=%albuminterpret%" -T "ALBUMARTIST=%albuminterpret%" -T "COMPOSER=%composer%" %haslyrics%--tag-from-file=LYRICS="%lyricsfile%"%haslyrics% -T "DISCNUMBER=%cdnumber%" -T "TOTALDISCS=%totalcds%" -T "TOTALTRACKS=%numtracks%" %hascover%--picture="%coverfile%"%hascover% %source% -o %dest%
TOC извлечённого CD
Трек | Старт | Длительность | Начальный сектор | Конечный сектор
---------------------------------------------------------------------
1 | 0:00.00 | 4:42.16 | 0 | 21165
2 | 4:42.16 | 4:08.62 | 21166 | 39827
3 | 8:51.03 | 4:25.33 | 39828 | 59735
4 | 13:16.36 | 6:00.63 | 59736 | 86798
5 | 19:17.24 | 4:21.33 | 86799 | 106406
6 | 23:38.57 | 4:37.24 | 106407 | 127205
7 | 28:16.06 | 3:47.31 | 127206 | 144261
8 | 32:03.37 | 3:49.52 | 144262 | 161488
9 | 35:53.14 | 4:31.20 | 161489 | 181833
10 | 40:24.34 | 3:48.51 | 181834 | 198984
11 | 44:13.10 | 4:52.53 | 198985 | 220937
12 | 49:05.63 | 4:37.48 | 220938 | 241760
13 | 53:43.36 | 6:00.18 | 241761 | 268778
14 | 59:43.54 | 7:03.22 | 268779 | 300525
15 | 66:47.01 | 3:47.67 | 300526 | 317617
16 | 70:34.68 | 4:21.29 | 317618 | 337221
Характеристики диапазона извлечения и сообщения об ошибках
Выбранный диапазон
Имя файла C:\Users\Titanium\Desktop\Deborah Bonham - The Old Hyde\Deborah Bonham - The Old Hyde.wav
Пиковый уровень 100.0 %
Скорость извлечения 7.9 X
Качество диапазона 99.9 %
CRC теста EB55C89C
CRC копии EB55C89C
Копирование... OK
Ошибок не произошло
Конец отчёта
---- CUETools DB Plugin V2.1.6
[CTDB TOCID: cQMlYJD.WN3MPlRJDWr5lNlJnV8-] found
Submit result: cQMlYJD.WN3MPlRJDWr5lNlJnV8- has been uploaded
Track | CTDB Status
1 | (1/1) Accurately ripped
2 | (1/1) Accurately ripped
3 | (1/1) Accurately ripped
4 | (1/1) Accurately ripped
5 | (1/1) Accurately ripped
6 | (1/1) Accurately ripped
7 | (1/1) Accurately ripped
8 | (1/1) Accurately ripped
9 | (1/1) Accurately ripped
10 | (0/1) No match
11 | (1/1) Accurately ripped
12 | (1/1) Accurately ripped
13 | (1/1) Accurately ripped
14 | (0/1) No match
15 | (0/1) No match
16 | (0/1) No match
==== Контрольная сумма отчёта BCA02C40D0F7BF5A1B3834F6EC6B47A2D00D76E26A73E753AB0B6D98F28DA021 ====

Содержание индексной карты (.CUE)

REM GENRE Rock
REM DATE 2004
REM DISCID F3119010
REM COMMENT "ExactAudioCopy v1.3"
PERFORMER "Deborah Bonham"
TITLE "The Old Hyde"
REM COMPOSER ""
FILE "Deborah Bonham - The Old Hyde.flac" WAVE
TRACK 01 AUDIO
TITLE "Shit Happens"
PERFORMER "Deborah Bonham"
REM COMPOSER ""
FLAGS DCP
INDEX 01 00:00:00
TRACK 02 AUDIO
TITLE "Anything"
PERFORMER "Deborah Bonham"
REM COMPOSER ""
FLAGS DCP
INDEX 01 04:42:16
TRACK 03 AUDIO
TITLE "Go Now"
PERFORMER "Deborah Bonham"
REM COMPOSER ""
FLAGS DCP
INDEX 01 08:51:03
TRACK 04 AUDIO
TITLE "Need Your Love"
PERFORMER "Deborah Bonham"
REM COMPOSER ""
FLAGS DCP
INDEX 01 13:16:36
TRACK 05 AUDIO
TITLE "Black Coffee"
PERFORMER "Deborah Bonham"
REM COMPOSER ""
FLAGS DCP
INDEX 01 19:17:24
TRACK 06 AUDIO
TITLE "No Angel"
PERFORMER "Deborah Bonham"
REM COMPOSER ""
FLAGS DCP
INDEX 01 23:38:57
TRACK 07 AUDIO
TITLE "Devil's In New Orleans"
PERFORMER "Deborah Bonham"
REM COMPOSER ""
FLAGS DCP
INDEX 01 28:16:06
TRACK 08 AUDIO
TITLE "What We've Got"
PERFORMER "Deborah Bonham"
REM COMPOSER ""
FLAGS DCP
INDEX 01 32:03:37
TRACK 09 AUDIO
TITLE "Open Up Your Heart"
PERFORMER "Deborah Bonham"
REM COMPOSER ""
FLAGS DCP
INDEX 01 35:53:14
TRACK 10 AUDIO
TITLE "Without You"
PERFORMER "Deborah Bonham"
REM COMPOSER ""
FLAGS DCP
INDEX 01 40:24:34
TRACK 11 AUDIO
TITLE "Religion"
PERFORMER "Deborah Bonham"
REM COMPOSER ""
FLAGS DCP
INDEX 01 44:13:10
TRACK 12 AUDIO
TITLE "Ten Steps"
PERFORMER "Deborah Bonham"
REM COMPOSER ""
FLAGS DCP
INDEX 01 49:05:63
TRACK 13 AUDIO
TITLE "The Old Hyde"
PERFORMER "Deborah Bonham"
REM COMPOSER ""
FLAGS DCP
INDEX 01 53:43:36
TRACK 14 AUDIO
TITLE "Battle Of Evermore (bonus)"
PERFORMER "Deborah Bonham"
REM COMPOSER ""
FLAGS DCP
INDEX 01 59:43:54
TRACK 15 AUDIO
TITLE "Stay With Me Baby (bonus)"
PERFORMER "Deborah Bonham"
REM COMPOSER ""
FLAGS DCP
INDEX 01 66:47:01
TRACK 16 AUDIO
TITLE "Songbird (bonus)"
PERFORMER "Deborah Bonham"
REM COMPOSER ""
FLAGS DCP
INDEX 01 70:34:68

Лог проверки качества

-----------------------
DON'T MODIFY THIS FILE
-----------------------
PERFORMER: auCDtect Task Manager, ver. 1.6.0 RC1 build 1.6.0.1
Copyright (c) 2008-2010 y-soft. All rights reserved
http://y-soft.org
ANALYZER: auCDtect: CD records authenticity detector, version 0.8.2
Copyright (c) 2004 Oleg Berngardt. All rights reserved.
Copyright (c) 2004 Alexander Djourik. All rights reserved.
FILE: Deborah Bonham - The Old Hyde.flac
Size: 500003295 Hash: FDFCCEE1265B38CF42ABE1B844F7E69E Accuracy: -m0
Conclusion: CDDA 100%
Signature: 3B6514385041A96D4C0029E7B50FC7D9B19E8EB6
Доп. информация: Дама из плеяды Бонэмов-барабанщиков ...
Данный альбом был записан в 2001 году, издан в 2004, переиздан в 2012!

To download the file disable ad blocking, and reload the page.

disable adblock How to disable ad blocking?

Download by magnet link 533 MB Download Torrent

Login using:

Загрузка...


   
Current time is: 17-Dec 13:33 :: All times are UTC + 3