Albert King / The Big Blues (1962) 2016 Remastered Жанр: Electric Blues, Texas Blues
Носитель: CD
Страна-производитель диска (релиза): UK
Год издания: 2016
Издатель (лейбл): Soul Jam Records
Номер по каталогу: 600884
Страна исполнителя (группы): US
Аудиокодек: FLAC (*.flac)
Тип рипа: tracks+.cue
Битрейт аудио: lossless
Продолжительность: 00:55:17
Источник (релизер): redazy
Наличие сканов в содержимом раздачи: да
Треклист:
01. Let's Have A Natural Ball (2:56)
02. What Can I Do To Change Your Mind (2:53)
03. I Get Evil (2:27)
04. Had You Told It Like It Was (It Wouldn't Be Like It Is) (3:06)
05. This Morning (2:10)
06. I Walked All Night Long (2:56)
07. Don't Throw Your Love On Me So Strong (2:57)
08. Travelin' To California (3:02)
09. I've Made Nights By Myself (2:37)
10. This Funny Feeling (2:35)
11. Ooh-Ee Baby (3:58)
12. Dyna Flow (2:48)
13. Need You By My Side (2:34)
14. The Time Has Come (2:34)
15. Why Are You So Mean To Me (2:53)
16. Blues At Sunrise (2:40)
17. I'll Do Anything You Say (2:58)
18. Got To Be Some Changes Made (2:14)
19. Old Blue Ribbon (2:25)
20. I've Made Nights By Myself (Alternate Take) (2:32)

Лог создания рипа

Exact Audio Copy V1.2 from 12. August 2016
EAC extraction logfile from 21. January 2017, 19:27
Albert King / The Big Blues
Used drive : TSSTcorpCDDVDW SH-224BB Adapter: 1 ID: 0
Read mode : Secure
Utilize accurate stream : Yes
Defeat audio cache : Yes
Make use of C2 pointers : No
Read offset correction : 6
Overread into Lead-In and Lead-Out : No
Fill up missing offset samples with silence : Yes
Delete leading and trailing silent blocks : No
Null samples used in CRC calculations : Yes
Used interface : Native Win32 interface for Win NT & 2000
Gap handling : Appended to previous track
Used output format : User Defined Encoder
Selected bitrate : 768 kBit/s
Quality : High
Add ID3 tag : No
Command line compressor : C:\Program Files (x86)\Exact Audio Copy\Flac\flac.exe
Additional command line options : -8 -V -T "ARTIST=%artist%" -T "TITLE=%title%" -T "ALBUM=%albumtitle%" -T "DATE=%year%" -T "TRACKNUMBER=%tracknr%" -T "TOTALTRACKS=%numtracks%" -T "GENRE=%genre%" -T "ALBUMARTIST=%albumartist%" -T "ALBUM ARTIST=%albumartist%" -T "COMMENT=EAC Secure Mode, Test & Copy, AccurateRip, FLAC -8" %source%
TOC of the extracted CD
Track | Start | Length | Start sector | End sector
---------------------------------------------------------
1 | 0:00.00 | 2:56.05 | 0 | 13204
2 | 2:56.05 | 2:53.36 | 13205 | 26215
3 | 5:49.41 | 2:27.26 | 26216 | 37266
4 | 8:16.67 | 3:06.10 | 37267 | 51226
5 | 11:23.02 | 2:10.26 | 51227 | 61002
6 | 13:33.28 | 2:56.16 | 61003 | 74218
7 | 16:29.44 | 2:57.15 | 74219 | 87508
8 | 19:26.59 | 3:01.70 | 87509 | 101153
9 | 22:28.54 | 2:37.10 | 101154 | 112938
10 | 25:05.64 | 2:34.48 | 112939 | 124536
11 | 27:40.37 | 3:57.40 | 124537 | 142351
12 | 31:38.02 | 2:48.30 | 142352 | 154981
13 | 34:26.32 | 2:33.46 | 154982 | 166502
14 | 37:00.03 | 2:34.18 | 166503 | 178070
15 | 39:34.21 | 2:53.31 | 178071 | 191076
16 | 42:27.52 | 2:39.70 | 191077 | 203071
17 | 45:07.47 | 2:58.21 | 203072 | 216442
18 | 48:05.68 | 2:13.44 | 216443 | 226461
19 | 50:19.37 | 2:24.64 | 226462 | 237325
20 | 52:44.26 | 2:32.13 | 237326 | 248738
Track 1
Filename C:\Rips\Albert King - The Big Blues (1962) [FLAC] (Remastered & Reissued 2016)\01 - Let's Have A Natural Ball.wav
Pre-gap length 0:00:02.00
Peak level 93.3 %
Extraction speed 3.9 X
Track quality 100.0 %
Test CRC 6803CF34
Copy CRC 6803CF34
Track not present in AccurateRip database
Copy OK
Track 2
Filename C:\Rips\Albert King - The Big Blues (1962) [FLAC] (Remastered & Reissued 2016)\02 - What Can I Do To Change Your Mind.wav
Peak level 96.7 %
Extraction speed 4.1 X
Track quality 100.0 %
Test CRC 2E10506C
Copy CRC 2E10506C
Track not present in AccurateRip database
Copy OK
Track 3
Filename C:\Rips\Albert King - The Big Blues (1962) [FLAC] (Remastered & Reissued 2016)\03 - I Get Evil.wav
Peak level 96.3 %
Extraction speed 4.2 X
Track quality 100.0 %
Test CRC 4C9E8A1F
Copy CRC 4C9E8A1F
Track not present in AccurateRip database
Copy OK
Track 4
Filename C:\Rips\Albert King - The Big Blues (1962) [FLAC] (Remastered & Reissued 2016)\04 - Had You Told It Like It Was (It Wouldn't Be Like It Is).wav
Peak level 69.2 %
Extraction speed 4.7 X
Track quality 100.0 %
Test CRC 6B969216
Copy CRC 6B969216
Track not present in AccurateRip database
Copy OK
Track 5
Filename C:\Rips\Albert King - The Big Blues (1962) [FLAC] (Remastered & Reissued 2016)\05 - This Morning.wav
Peak level 90.4 %
Extraction speed 4.6 X
Track quality 100.0 %
Test CRC 11A76E5A
Copy CRC 11A76E5A
Track not present in AccurateRip database
Copy OK
Track 6
Filename C:\Rips\Albert King - The Big Blues (1962) [FLAC] (Remastered & Reissued 2016)\06 - I Walked All Night Long.wav
Peak level 88.5 %
Extraction speed 5.0 X
Track quality 100.0 %
Test CRC 6C673BC1
Copy CRC 6C673BC1
Track not present in AccurateRip database
Copy OK
Track 7
Filename C:\Rips\Albert King - The Big Blues (1962) [FLAC] (Remastered & Reissued 2016)\07 - Don't Throw Your Love On Me So Strong.wav
Peak level 87.9 %
Extraction speed 5.3 X
Track quality 100.0 %
Test CRC EC76082F
Copy CRC EC76082F
Track not present in AccurateRip database
Copy OK
Track 8
Filename C:\Rips\Albert King - The Big Blues (1962) [FLAC] (Remastered & Reissued 2016)\08 - Travelin' To California.wav
Peak level 93.3 %
Extraction speed 4.3 X
Track quality 99.9 %
Test CRC 9610F4F2
Copy CRC 9610F4F2
Track not present in AccurateRip database
Copy OK
Track 9
Filename C:\Rips\Albert King - The Big Blues (1962) [FLAC] (Remastered & Reissued 2016)\09 - I've Made Nights By Myself.wav
Peak level 90.3 %
Extraction speed 5.5 X
Track quality 100.0 %
Test CRC 2F63A204
Copy CRC 2F63A204
Track not present in AccurateRip database
Copy OK
Track 10
Filename C:\Rips\Albert King - The Big Blues (1962) [FLAC] (Remastered & Reissued 2016)\10 - This Funny Feeling.wav
Peak level 74.0 %
Extraction speed 5.6 X
Track quality 100.0 %
Test CRC 68920E59
Copy CRC 68920E59
Track not present in AccurateRip database
Copy OK
Track 11
Filename C:\Rips\Albert King - The Big Blues (1962) [FLAC] (Remastered & Reissued 2016)\11 - Ooh-Ee Baby.wav
Peak level 84.2 %
Extraction speed 6.4 X
Track quality 100.0 %
Test CRC F8BBC7B3
Copy CRC F8BBC7B3
Track not present in AccurateRip database
Copy OK
Track 12
Filename C:\Rips\Albert King - The Big Blues (1962) [FLAC] (Remastered & Reissued 2016)\12 - Dyna Flow.wav
Peak level 87.9 %
Extraction speed 6.2 X
Track quality 100.0 %
Test CRC 11283E46
Copy CRC 11283E46
Track not present in AccurateRip database
Copy OK
Track 13
Filename C:\Rips\Albert King - The Big Blues (1962) [FLAC] (Remastered & Reissued 2016)\13 - Need You By My Side.wav
Peak level 98.8 %
Extraction speed 6.1 X
Track quality 100.0 %
Test CRC 0E0946C5
Copy CRC 0E0946C5
Track not present in AccurateRip database
Copy OK
Track 14
Filename C:\Rips\Albert King - The Big Blues (1962) [FLAC] (Remastered & Reissued 2016)\14 - The Time Has Come.wav
Peak level 96.7 %
Extraction speed 6.3 X
Track quality 100.0 %
Test CRC CE0F1155
Copy CRC CE0F1155
Track not present in AccurateRip database
Copy OK
Track 15
Filename C:\Rips\Albert King - The Big Blues (1962) [FLAC] (Remastered & Reissued 2016)\15 - Why Are You So Mean To Me.wav
Peak level 97.4 %
Extraction speed 6.6 X
Track quality 100.0 %
Test CRC 2D33B8C5
Copy CRC 2D33B8C5
Track not present in AccurateRip database
Copy OK
Track 16
Filename C:\Rips\Albert King - The Big Blues (1962) [FLAC] (Remastered & Reissued 2016)\16 - Blues At Sunrise.wav
Peak level 98.7 %
Extraction speed 6.6 X
Track quality 100.0 %
Test CRC 762781A3
Copy CRC 762781A3
Track not present in AccurateRip database
Copy OK
Track 17
Filename C:\Rips\Albert King - The Big Blues (1962) [FLAC] (Remastered & Reissued 2016)\17 - I'll Do Anything You Say.wav
Peak level 92.6 %
Extraction speed 5.3 X
Track quality 99.9 %
Test CRC 4DC7EEC1
Copy CRC 4DC7EEC1
Track not present in AccurateRip database
Copy OK
Track 18
Filename C:\Rips\Albert King - The Big Blues (1962) [FLAC] (Remastered & Reissued 2016)\18 - Got To Be Some Changes Made.wav
Peak level 94.7 %
Extraction speed 6.6 X
Track quality 100.0 %
Test CRC 0399440D
Copy CRC 0399440D
Track not present in AccurateRip database
Copy OK
Track 19
Filename C:\Rips\Albert King - The Big Blues (1962) [FLAC] (Remastered & Reissued 2016)\19 - Old Blue Ribbon.wav
Peak level 97.4 %
Extraction speed 6.9 X
Track quality 100.0 %
Test CRC 51B0BAB6
Copy CRC 51B0BAB6
Track not present in AccurateRip database
Copy OK
Track 20
Filename C:\Rips\Albert King - The Big Blues (1962) [FLAC] (Remastered & Reissued 2016)\20 - I've Made Nights By Myself (Alternate Take).wav
Peak level 99.4 %
Extraction speed 7.1 X
Track quality 100.0 %
Test CRC 30762F28
Copy CRC 30762F28
Track not present in AccurateRip database
Copy OK
None of the tracks are present in the AccurateRip database
No errors occurred
End of status report
---- CUETools DB Plugin V2.1.6
[CTDB TOCID: Q9_r7qWhCyVoE3MphXSw215dLnk-] found
Submit result: Q9_r7qWhCyVoE3MphXSw215dLnk- has been confirmed
Track | CTDB Status
1 | (2/2) Accurately ripped
2 | (2/2) Accurately ripped
3 | (2/2) Accurately ripped
4 | (2/2) Accurately ripped
5 | (2/2) Accurately ripped
6 | (2/2) Accurately ripped
7 | (2/2) Accurately ripped
8 | (2/2) Accurately ripped
9 | (2/2) Accurately ripped
10 | (2/2) Accurately ripped
11 | (2/2) Accurately ripped
12 | (2/2) Accurately ripped
13 | (2/2) Accurately ripped
14 | (2/2) Accurately ripped
15 | (2/2) Accurately ripped
16 | (2/2) Accurately ripped
17 | (2/2) Accurately ripped
18 | (2/2) Accurately ripped
19 | (2/2) Accurately ripped
20 | (2/2) Accurately ripped
==== Log checksum 4BBA1ECE6B3418F8F269863D9DE621C93FF0E95A367351B1DB78EF9B00541EF5 ====

Содержание индексной карты (.CUE)

REM GENRE Blues
REM DATE 2016
REM DISCID 230CF414
REM COMMENT "ExactAudioCopy v1.2"
PERFORMER "Albert King"
TITLE "The Big Blues"
REM COMPOSER ""
FILE "01 - Let's Have A Natural Ball.wav" WAVE
TRACK 01 AUDIO
TITLE "Let's Have A Natural Ball"
PERFORMER "Albert King"
REM COMPOSER ""
INDEX 01 00:00:00
FILE "02 - What Can I Do To Change Your Mind.wav" WAVE
TRACK 02 AUDIO
TITLE "What Can I Do To Change Your Mind"
PERFORMER "Albert King"
REM COMPOSER ""
INDEX 01 00:00:00
FILE "03 - I Get Evil.wav" WAVE
TRACK 03 AUDIO
TITLE "I Get Evil"
PERFORMER "Albert King"
REM COMPOSER ""
INDEX 01 00:00:00
FILE "04 - Had You Told It Like It Was (It Wouldn't Be Like It Is).wav" WAVE
TRACK 04 AUDIO
TITLE "Had You Told It Like It Was (It Wouldn't Be Like It Is)"
PERFORMER "Albert King"
REM COMPOSER ""
FLAGS PRE
INDEX 01 00:00:00
FILE "05 - This Morning.wav" WAVE
TRACK 05 AUDIO
TITLE "This Morning"
PERFORMER "Albert King"
REM COMPOSER ""
INDEX 01 00:00:00
FILE "06 - I Walked All Night Long.wav" WAVE
TRACK 06 AUDIO
TITLE "I Walked All Night Long"
PERFORMER "Albert King"
REM COMPOSER ""
INDEX 01 00:00:00
FILE "07 - Don't Throw Your Love On Me So Strong.wav" WAVE
TRACK 07 AUDIO
TITLE "Don't Throw Your Love On Me So Strong"
PERFORMER "Albert King"
REM COMPOSER ""
INDEX 01 00:00:00
FILE "08 - Travelin' To California.wav" WAVE
TRACK 08 AUDIO
TITLE "Travelin' To California"
PERFORMER "Albert King"
REM COMPOSER ""
INDEX 01 00:00:00
FILE "09 - I've Made Nights By Myself.wav" WAVE
TRACK 09 AUDIO
TITLE "I've Made Nights By Myself"
PERFORMER "Albert King"
REM COMPOSER ""
INDEX 01 00:00:00
FILE "10 - This Funny Feeling.wav" WAVE
TRACK 10 AUDIO
TITLE "This Funny Feeling"
PERFORMER "Albert King"
REM COMPOSER ""
FLAGS PRE DCP
INDEX 01 00:00:00
FILE "11 - Ooh-Ee Baby.wav" WAVE
TRACK 11 AUDIO
TITLE "Ooh-Ee Baby"
PERFORMER "Albert King"
REM COMPOSER ""
INDEX 01 00:00:00
FILE "12 - Dyna Flow.wav" WAVE
TRACK 12 AUDIO
TITLE "Dyna Flow"
PERFORMER "Albert King"
REM COMPOSER ""
INDEX 01 00:00:00
FILE "13 - Need You By My Side.wav" WAVE
TRACK 13 AUDIO
TITLE "Need You By My Side"
PERFORMER "Albert King"
REM COMPOSER ""
INDEX 01 00:00:00
FILE "14 - The Time Has Come.wav" WAVE
TRACK 14 AUDIO
TITLE "The Time Has Come"
PERFORMER "Albert King"
REM COMPOSER ""
INDEX 01 00:00:00
FILE "15 - Why Are You So Mean To Me.wav" WAVE
TRACK 15 AUDIO
TITLE "Why Are You So Mean To Me"
PERFORMER "Albert King"
REM COMPOSER ""
INDEX 01 00:00:00
FILE "16 - Blues At Sunrise.wav" WAVE
TRACK 16 AUDIO
TITLE "Blues At Sunrise"
PERFORMER "Albert King"
REM COMPOSER ""
INDEX 01 00:00:00
FILE "17 - I'll Do Anything You Say.wav" WAVE
TRACK 17 AUDIO
TITLE "I'll Do Anything You Say"
PERFORMER "Albert King"
REM COMPOSER ""
INDEX 01 00:00:00
FILE "18 - Got To Be Some Changes Made.wav" WAVE
TRACK 18 AUDIO
TITLE "Got To Be Some Changes Made"
PERFORMER "Albert King"
REM COMPOSER ""
INDEX 01 00:00:00
FILE "19 - Old Blue Ribbon.wav" WAVE
TRACK 19 AUDIO
TITLE "Old Blue Ribbon"
PERFORMER "Albert King"
REM COMPOSER ""
INDEX 01 00:00:00
FILE "20 - I've Made Nights By Myself (Alternate Take).wav" WAVE
TRACK 20 AUDIO
TITLE "I've Made Nights By Myself (Alternate Take)"
PERFORMER "Albert King"
REM COMPOSER ""
INDEX 01 00:00:00

Лог проверки качества

-----------------------
DON'T MODIFY THIS FILE
-----------------------
PERFORMER: auCDtect Task Manager, ver. 1.6.0 RC1 build 1.6.0.1
Copyright (c) 2008-2010 y-soft. All rights reserved
http://y-soft.org
ANALYZER: auCDtect: CD records authenticity detector, version 0.8.2
Copyright (c) 2004 Oleg Berngardt. All rights reserved.
Copyright (c) 2004 Alexander Djourik. All rights reserved.
FILE: 20 - I've Made Nights By Myself (Alternate Take).flac
Size: 16387455 Hash: A067E79DFB628AB4F0D9CD877C605A01 Accuracy: -m0
Conclusion: CDDA 100%
Signature: BA12E43A57D18CF9C37840C112F8E04B190417C6
FILE: 19 - Old Blue Ribbon.flac
Size: 16406973 Hash: 66212DC14874196C506F9443A763A018 Accuracy: -m0
Conclusion: CDDA 100%
Signature: 146CEF66D65BFB41C1F3905CF347E74EFEAAF658
FILE: 18 - Got To Be Some Changes Made.flac
Size: 9572021 Hash: F18625CED985A223882C7FB8D1B20866 Accuracy: -m0
Conclusion: CDDA 100%
Signature: A99EC5489A44156B85D6CC67BCBB588D74998CD9
FILE: 17 - I'll Do Anything You Say.flac
Size: 12509173 Hash: 4C1B3F4426437FAD08371155607D30E8 Accuracy: -m0
Conclusion: CDDA 100%
Signature: 77E36786A4C3BD778BC3DFD3166F340D23398F37
FILE: 16 - Blues At Sunrise.flac
Size: 10589833 Hash: 659E2548AEB2669A7B1D64B2EB47FFF3 Accuracy: -m0
Conclusion: CDDA 100%
Signature: 234891EA41BA4F90115E99B0B2345F7696E70D68
FILE: 15 - Why Are You So Mean To Me.flac
Size: 11908196 Hash: EA790AE180A76EB901C4E6A2C36276D9 Accuracy: -m0
Conclusion: CDDA 100%
Signature: F19428064FBB075473A5E262D9030EF9D5C6C14C
FILE: 14 - The Time Has Come.flac
Size: 11362543 Hash: 304E6800EB8819A453EE3075E583B148 Accuracy: -m0
Conclusion: CDDA 100%
Signature: 565BACF49B65587C907607FB8DB5C580C9A64C58
FILE: 13 - Need You By My Side.flac
Size: 11623022 Hash: 9B669A9A851B15D20ED6012645F80D3E Accuracy: -m0
Conclusion: CDDA 100%
Signature: 5F03FD0651442DC02F6B3B0704F89056B12EE116
FILE: 12 - Dyna Flow.flac
Size: 12442298 Hash: D31CC3AA7EB369D6D6D0A58B4C1A4B43 Accuracy: -m0
Conclusion: CDDA 100%
Signature: 1B388426F7C6B0C3FBDAE7BA0B5EDA0DF9945A74
FILE: 11 - Ooh-Ee Baby.flac
Size: 16620218 Hash: 6843CAEA8677C0AEF43C9E05306E47E4 Accuracy: -m0
Conclusion: CDDA 100%
Signature: FC6F4428A3ABD2F205F8FF4C56A5060AB2601B94
FILE: 10 - This Funny Feeling.flac
Size: 17279162 Hash: E720F7C38B3E6C170E7D226F50118C31 Accuracy: -m0
Conclusion: CDDA 100%
Signature: 7E49E04FDE92002B7C3A9B7AE41A26AFDB0E1FFD
FILE: 09 - I've Made Nights By Myself.flac
Size: 10301679 Hash: FA6AAE68D891523E33CF55C8066046D3 Accuracy: -m0
Conclusion: CDDA 99%
Signature: 689B0AC012F5255D5FA6A9AB1087416FBF6B04CD
FILE: 08 - Travelin' To California.flac
Size: 12261804 Hash: 426E2458D7ACAA29F89077B4F94C7EF9 Accuracy: -m0
Conclusion: CDDA 100%
Signature: 543C56D412310470BD543C008BC3642CE5074FFC
FILE: 07 - Don't Throw Your Love On Me So Strong.flac
Size: 12518510 Hash: F114E83C04468D51B2C8811A717651F6 Accuracy: -m0
Conclusion: CDDA 100%
Signature: B7567206BA974AAC9791C734F4228A19BD318D3E
FILE: 06 - I Walked All Night Long.flac
Size: 11378012 Hash: 6D8BA83C3CBCC77C3356DF68C30DE953 Accuracy: -m0
Conclusion: CDDA 100%
Signature: F5AF827907E11824E9587E3038C9BF603DC89A89
FILE: 05 - This Morning.flac
Size: 9133269 Hash: 5D9C6976DA70F6791BAC54EC0EAC4188 Accuracy: -m0
Conclusion: CDDA 100%
Signature: 4F450678102749DB696AE536EEC3CACDEBB36CA5
FILE: 04 - Had You Told It Like It Was (It Wouldn't Be Like It Is).flac
Size: 21065419 Hash: 9B5A739A7BD95CD476B68DC23ED313B6 Accuracy: -m0
Conclusion: CDDA 100%
Signature: 0365541E08184173F4F721016AA505A22C3C1C59
FILE: 03 - I Get Evil.flac
Size: 9264054 Hash: 416B470C7AEF4D27511BB56B68874224 Accuracy: -m0
Conclusion: CDDA 99%
Signature: ED46B20768FF22149CEB5C5EBF85D633F3DAF867
FILE: 02 - What Can I Do To Change Your Mind.flac
Size: 11613515 Hash: C4AD9630FDA1E5FC243CF327BD5E9D4D Accuracy: -m0
Conclusion: CDDA 100%
Signature: B0B7FE97ACED55B1D8365E7451265DEFC6D84FE4
FILE: 01 - Let's Have A Natural Ball.flac
Size: 11777113 Hash: AD7A827119795968FF02947C1F330E64 Accuracy: -m0
Conclusion: CDDA 100%
Signature: 1B46B4F5C043FFD01E59C4E317B2D34BA3D1E215

Об альбоме (сборнике)

https://www.discogs.com/Albert-King-The-Big-Blues/release/9630603
Soul Jam Records - 600884 Format: CD, Album, Compilation, Reissue, Remastered Country: UK Released: 2016
http://www.allmusic.com/album/the-big-blues-mw0000081239
https://en.wikipedia.org/wiki/The_Big_Blues
Personnel:
Albert King – Electric guitar and vocals
Ike Turner – piano on "Don't Throw Your Love On Me So Strong"
Pierre Wooten - cover illustration
The Big Blues is the debut album by Albert King, released in 1962 by King Records. Featuring mostly songs composed by Albert King himself, this was his first album and the only one before he signed with Stax Records, where he would record most albums along his career.
The album is a collection of songs previously released by King Records and Bobbin Records as singles and B-sides. King recorded "Blues at Sunrise" and "Let's Have a Natural Ball" (which appears on the album) for Bobbin in 1956, which helped to establish him in recording. King Records bought his contract from Bobbin in 1961. The album was later reissued under the title Travelin' to California.
другое издание
Albert King lossless

Для скачивания файла отключите блокировку рекламы и перезагрузите страницу.

disable adblock Как отключить блокировку рекламы?

Скачать по магнет ссылке 297 MB 

Войти с помощью:

Похожие раздачи

Внимание! Контент 18+ если вы младше данного возраста, НЕ переходите по ссылке!!!


   
Текущее время: 14-Авг 19:38 :: Часовой пояс: UTC ± 0