Silent Partners / If It's All Night, It's All Right Жанр: Modern Electric Blues
Носитель: CD
Страна-производитель диска (релиза): US
Год издания: 1989
Издатель (лейбл): Antone's Records
Номер по каталогу: ANT0010CD
Страна исполнителя (группы): US
Аудиокодек: FLAC (*.flac)
Тип рипа: tracks+.cue
Битрейт аудио: lossless
Продолжительность: 00:42:32
Источник (релизер): Ratcake
Наличие сканов в содержимом раздачи: да, с сети
Треклист:
01. Under Yonder (3:13)
02. Love Somebody (3:41)
03. I Don't Want No Woman (3:35)
04. Hey Little Girl (3:43)
05. Phone Booth (4:40)
06. Cleo's Back (3:28)
07. If It's All Night, It's All Right (4:41)
08. I Didn't Know (3:27)
09. Money (That's What I Want) (3:35)
10. Money Talks (3:45)
11. Two Steps from the Blues (4:44)

Лог создания рипа

X Lossless Decoder version 20161007 (149.3)
XLD extraction logfile from 2017-10-05 05:54:13 -0300
The Silent Partners / If It's All Night, It's All Right
Used drive : HL-DT-ST DVDRAM GP30NB20 (revision 1.00)
Media type : Pressed CD
Ripper mode : XLD Secure Ripper
Disable audio cache : OK for the drive with a cache less than 1375KiB
Make use of C2 pointers : NO
Read offset correction : 6
Max retry count : 20
Gap status : Analyzed, Appended
TOC of the extracted CD
Track | Start | Length | Start sector | End sector
---------------------------------------------------------
1 | 00:00:00 | 03:13:37 | 0 | 14511
2 | 03:13:37 | 03:41:30 | 14512 | 31116
3 | 06:54:67 | 03:34:53 | 31117 | 47219
4 | 10:29:45 | 03:43:07 | 47220 | 63951
5 | 14:12:52 | 04:39:48 | 63952 | 84924
6 | 18:52:25 | 03:27:60 | 84925 | 100509
7 | 22:20:10 | 04:41:27 | 100510 | 121611
8 | 27:01:37 | 03:26:50 | 121612 | 137111
9 | 30:28:12 | 03:34:68 | 137112 | 153229
10 | 34:03:05 | 03:44:45 | 153230 | 170074
11 | 37:47:50 | 04:44:05 | 170075 | 191379
AccurateRip Summary (DiscID: 001105fd-0094c8c5-8009f70b)
Track 01 : OK (v2, confidence 4/4)
Track 02 : OK (v2, confidence 4/4)
Track 03 : OK (v2, confidence 4/4)
Track 04 : OK (v2, confidence 4/4)
Track 05 : OK (v2, confidence 4/4)
Track 06 : OK (v2, confidence 4/4)
Track 07 : OK (v2, confidence 4/4)
Track 08 : OK (v2, confidence 4/4)
Track 09 : OK (v2, confidence 4/4)
Track 10 : OK (v2, confidence 4/4)
Track 11 : OK (v2, confidence 4/4)
->All tracks accurately ripped.
All Tracks
Album gain : -0.29 dB
Peak : 0.850067
Statistics
Read error : 0
Jitter error (maybe fixed) : 0
Retry sector count : 0
Damaged sector count : 0
Track 01
Filename : /Incompatible Software/The Silent Partners- If It's All Night, It's All Right (1989) {ANT0010CD} [FLAC]/01. - Under Yonder.flac
Pre-gap length : 00:02:00
Track gain : -0.86 dB
Peak : 0.696899
CRC32 hash (test run) : C07086AA
CRC32 hash : C07086AA
CRC32 hash (skip zero) : 17AAB4C2
AccurateRip v1 signature : DD48A5F6
AccurateRip v2 signature : 9E247B95
->Accurately ripped (v2, confidence 4/4)
Statistics
Read error : 0
Jitter error (maybe fixed) : 0
Retry sector count : 0
Damaged sector count : 0
Track 02
Filename : /Incompatible Software/The Silent Partners- If It's All Night, It's All Right (1989) {ANT0010CD} [FLAC]/02. - Love Somebody.flac
Track gain : -0.67 dB
Peak : 0.818878
CRC32 hash (test run) : DD2E5DA1
CRC32 hash : DD2E5DA1
CRC32 hash (skip zero) : EB8E5741
AccurateRip v1 signature : 9991F445
AccurateRip v2 signature : 8C657F92
->Accurately ripped (v2, confidence 4/4)
Statistics
Read error : 0
Jitter error (maybe fixed) : 0
Retry sector count : 0
Damaged sector count : 0
Track 03
Filename : /Incompatible Software/The Silent Partners- If It's All Night, It's All Right (1989) {ANT0010CD} [FLAC]/03. - I Don't Want No Woman.flac
Pre-gap length : 00:01:15
Track gain : 0.33 dB
Peak : 0.722534
CRC32 hash (test run) : 17BFFDC2
CRC32 hash : 17BFFDC2
CRC32 hash (skip zero) : 201CCC10
AccurateRip v1 signature : 71E87695
AccurateRip v2 signature : D7A92292
->Accurately ripped (v2, confidence 4/4)
Statistics
Read error : 0
Jitter error (maybe fixed) : 0
Retry sector count : 0
Damaged sector count : 0
Track 04
Filename : /Incompatible Software/The Silent Partners- If It's All Night, It's All Right (1989) {ANT0010CD} [FLAC]/04. - Hey Little Girl.flac
Track gain : -1.13 dB
Peak : 0.731750
CRC32 hash (test run) : 2797801A
CRC32 hash : 2797801A
CRC32 hash (skip zero) : CFC5B9FA
AccurateRip v1 signature : DDAEC85E
AccurateRip v2 signature : 80BE8687
->Accurately ripped (v2, confidence 4/4)
Statistics
Read error : 0
Jitter error (maybe fixed) : 0
Retry sector count : 0
Damaged sector count : 0
Track 05
Filename : /Incompatible Software/The Silent Partners- If It's All Night, It's All Right (1989) {ANT0010CD} [FLAC]/05. - Phone Booth.flac
Pre-gap length : 00:02:30
Track gain : -0.21 dB
Peak : 0.775696
CRC32 hash (test run) : 864E39CB
CRC32 hash : 864E39CB
CRC32 hash (skip zero) : FFB1E502
AccurateRip v1 signature : 5F98BD2F
AccurateRip v2 signature : 38A92E88
->Accurately ripped (v2, confidence 4/4)
Statistics
Read error : 0
Jitter error (maybe fixed) : 0
Retry sector count : 0
Damaged sector count : 0
Track 06
Filename : /Incompatible Software/The Silent Partners- If It's All Night, It's All Right (1989) {ANT0010CD} [FLAC]/06. - Cleo's Back.flac
Pre-gap length : 00:00:35
Track gain : -0.88 dB
Peak : 0.845062
CRC32 hash (test run) : F3B46CC9
CRC32 hash : F3B46CC9
CRC32 hash (skip zero) : 443A10A1
AccurateRip v1 signature : 518B6772
AccurateRip v2 signature : 954579CC
->Accurately ripped (v2, confidence 4/4)
Statistics
Read error : 0
Jitter error (maybe fixed) : 0
Retry sector count : 0
Damaged sector count : 0
Track 07
Filename : /Incompatible Software/The Silent Partners- If It's All Night, It's All Right (1989) {ANT0010CD} [FLAC]/07. - If It's All Night, It's All Right.flac
Pre-gap length : 00:01:35
Track gain : 0.58 dB
Peak : 0.736115
CRC32 hash (test run) : 4554CC63
CRC32 hash : 4554CC63
CRC32 hash (skip zero) : DEEF16D7
AccurateRip v1 signature : 63682857
AccurateRip v2 signature : C58D1CF1
->Accurately ripped (v2, confidence 4/4)
Statistics
Read error : 0
Jitter error (maybe fixed) : 0
Retry sector count : 0
Damaged sector count : 0
Track 08
Filename : /Incompatible Software/The Silent Partners- If It's All Night, It's All Right (1989) {ANT0010CD} [FLAC]/08. - I Didn't Know.flac
Pre-gap length : 00:01:65
Track gain : 0.03 dB
Peak : 0.620605
CRC32 hash (test run) : 0C819290
CRC32 hash : 0C819290
CRC32 hash (skip zero) : D387C6F1
AccurateRip v1 signature : 9F59451D
AccurateRip v2 signature : 5EF729C2
->Accurately ripped (v2, confidence 4/4)
Statistics
Read error : 0
Jitter error (maybe fixed) : 0
Retry sector count : 0
Damaged sector count : 0
Track 09
Filename : /Incompatible Software/The Silent Partners- If It's All Night, It's All Right (1989) {ANT0010CD} [FLAC]/09. - Money (That's What I Want).flac
Pre-gap length : 00:01:45
Track gain : -0.01 dB
Peak : 0.646973
CRC32 hash (test run) : 4EB47B19
CRC32 hash : 4EB47B19
CRC32 hash (skip zero) : 3710EEC4
AccurateRip v1 signature : 1C12FB27
AccurateRip v2 signature : 800FB143
->Accurately ripped (v2, confidence 4/4)
Statistics
Read error : 0
Jitter error (maybe fixed) : 0
Retry sector count : 0
Damaged sector count : 0
Track 10
Filename : /Incompatible Software/The Silent Partners- If It's All Night, It's All Right (1989) {ANT0010CD} [FLAC]/10. - Money Talks.flac
Pre-gap length : 00:00:50
Track gain : -1.06 dB
Peak : 0.850067
CRC32 hash (test run) : 2DFAE52A
CRC32 hash : 2DFAE52A
CRC32 hash (skip zero) : C4692D21
AccurateRip v1 signature : 450CF73A
AccurateRip v2 signature : D5230348
->Accurately ripped (v2, confidence 4/4)
Statistics
Read error : 0
Jitter error (maybe fixed) : 0
Retry sector count : 0
Damaged sector count : 0
Track 11
Filename : /Incompatible Software/The Silent Partners- If It's All Night, It's All Right (1989) {ANT0010CD} [FLAC]/11. - Two Steps from the Blues.flac
Pre-gap length : 00:01:03
Track gain : 1.36 dB
Peak : 0.715820
CRC32 hash (test run) : 9103A3CA
CRC32 hash : 9103A3CA
CRC32 hash (skip zero) : 9CA32B45
AccurateRip v1 signature : F41B9FB9
AccurateRip v2 signature : 071403CB
->Accurately ripped (v2, confidence 4/4)
Statistics
Read error : 0
Jitter error (maybe fixed) : 0
Retry sector count : 0
Damaged sector count : 0
No errors occurred
End of status report
-----BEGIN XLD SIGNATURE-----
JVTtDSwBBXDNFk.zapk8DPUWaeK3IxJ0muPucUywlHHmDU6SLl188_447Pf6X9heX_O8jdEUZofscZKuOvNOsgi6OtihM_x6ucYbuSa
-----END XLD SIGNATURE-----

Содержание индексной карты (.CUE)

TITLE "If It's All Night, It's All Right"
PERFORMER "The Silent Partners"
REM GENRE "Blues"
REM DATE "1989"
REM DISCNUMBER 1
REM TOTALDISCS 1
REM DISCID 8009F70B
REM REPLAYGAIN_ALBUM_GAIN -0.29 dB
REM REPLAYGAIN_ALBUM_PEAK 0.850067
FILE "01. - Under Yonder.flac" WAVE
TRACK 01 AUDIO
TITLE "Under Yonder"
SONGWRITER "Mel Brown, Tony Coleman, Russell Jackson"
REM REPLAYGAIN_TRACK_GAIN -0.86 dB
REM REPLAYGAIN_TRACK_PEAK 0.696899
INDEX 01 00:00:00
FILE "02. - Love Somebody.flac" WAVE
TRACK 02 AUDIO
TITLE "Love Somebody"
SONGWRITER "Jimmy Dawkins"
REM REPLAYGAIN_TRACK_GAIN -0.67 dB
REM REPLAYGAIN_TRACK_PEAK 0.818878
INDEX 01 00:00:00
TRACK 03 AUDIO
TITLE "I Don't Want No Woman"
SONGWRITER "Don Robey"
REM REPLAYGAIN_TRACK_GAIN 0.33 dB
REM REPLAYGAIN_TRACK_PEAK 0.722534
INDEX 00 03:40:15
FILE "03. - I Don't Want No Woman.flac" WAVE
INDEX 01 00:00:00
FILE "04. - Hey Little Girl.flac" WAVE
TRACK 04 AUDIO
TITLE "Hey Little Girl"
SONGWRITER "Russell Jackson"
REM REPLAYGAIN_TRACK_GAIN -1.13 dB
REM REPLAYGAIN_TRACK_PEAK 0.731750
INDEX 01 00:00:00
TRACK 05 AUDIO
TITLE "Phone Booth"
SONGWRITER "Robert Cray, Richard Cousins, Dennis Walker, Mike Vannice"
REM REPLAYGAIN_TRACK_GAIN -0.21 dB
REM REPLAYGAIN_TRACK_PEAK 0.775696
INDEX 00 03:40:52
FILE "05. - Phone Booth.flac" WAVE
INDEX 01 00:00:00
TRACK 06 AUDIO
TITLE "Cleo's Back"
SONGWRITER "Willie Woods"
REM REPLAYGAIN_TRACK_GAIN -0.88 dB
REM REPLAYGAIN_TRACK_PEAK 0.845062
INDEX 00 04:39:13
FILE "06. - Cleo's Back.flac" WAVE
INDEX 01 00:00:00
TRACK 07 AUDIO
TITLE "If It's All Night, It's All Right"
SONGWRITER "Russell Jackson"
REM REPLAYGAIN_TRACK_GAIN 0.58 dB
REM REPLAYGAIN_TRACK_PEAK 0.736115
INDEX 00 03:26:25
FILE "07. - If It's All Night, It's All Right.flac" WAVE
INDEX 01 00:00:00
TRACK 08 AUDIO
TITLE "I Didn't Know"
SONGWRITER "Tony Coleman"
REM REPLAYGAIN_TRACK_GAIN 0.03 dB
REM REPLAYGAIN_TRACK_PEAK 0.620605
INDEX 00 04:39:37
FILE "08. - I Didn't Know.flac" WAVE
INDEX 01 00:00:00
TRACK 09 AUDIO
TITLE "Money (That's What I Want)"
SONGWRITER "Janie Bradford/Berry Gordy"
REM REPLAYGAIN_TRACK_GAIN -0.01 dB
REM REPLAYGAIN_TRACK_PEAK 0.646973
INDEX 00 03:25:05
FILE "09. - Money (That's What I Want).flac" WAVE
INDEX 01 00:00:00
TRACK 10 AUDIO
TITLE "Money Talks"
SONGWRITER "Tony Coleman"
REM REPLAYGAIN_TRACK_GAIN -1.06 dB
REM REPLAYGAIN_TRACK_PEAK 0.850067
INDEX 00 03:34:18
FILE "10. - Money Talks.flac" WAVE
INDEX 01 00:00:00
TRACK 11 AUDIO
TITLE "Two Steps from the Blues"
SONGWRITER "John Riley Brown/Deadric Malone"
REM REPLAYGAIN_TRACK_GAIN 1.36 dB
REM REPLAYGAIN_TRACK_PEAK 0.715820
INDEX 00 03:43:42
FILE "11. - Two Steps from the Blues.flac" WAVE
INDEX 01 00:00:00

Лог проверки качества

-----------------------
DON'T MODIFY THIS FILE
-----------------------
PERFORMER: auCDtect Task Manager, ver. 1.6.0 RC1 build 1.6.0.1
Copyright (c) 2008-2010 y-soft. All rights reserved
http://y-soft.org
ANALYZER: auCDtect: CD records authenticity detector, version 0.8.2
Copyright (c) 2004 Oleg Berngardt. All rights reserved.
Copyright (c) 2004 Alexander Djourik. All rights reserved.
FILE: 11. - Two Steps from the Blues.flac
Size: 25242276 Hash: 011CF5FF2D9E0AF637DF38B73B768D1E Accuracy: -m0
Conclusion: CDDA 99%
Signature: 10B0B09C8624038FFC4C6997D6436E340BC5265B
FILE: 10. - Money Talks.flac
Size: 22353861 Hash: 1B547BBABAB2EA37F7D1633ACCA0A4EF Accuracy: -m0
Conclusion: CDDA 100%
Signature: 8225E3F0F23901EF86F7BBC81216B531003EC0B5
FILE: 09. - Money (That's What I Want).flac
Size: 21565022 Hash: 21857E88DAFFC2AAB51F5055186067D2 Accuracy: -m0
Conclusion: CDDA 99%
Signature: 58283778C88EAD95E1CBE4C397C6441FA0E61C3F
FILE: 08. - I Didn't Know.flac
Size: 20868298 Hash: 6F9450BCC6C07F5C67B1846136464D80 Accuracy: -m0
Conclusion: CDDA 100%
Signature: 563F45E4BE969AC1E66CD981B31D4D274C30C94D
FILE: 07. - If It's All Night, It's All Right.flac
Size: 28412978 Hash: 2416FF8D2C24C305D246AAA72880E34C Accuracy: -m0
Conclusion: CDDA 100%
Signature: D28454DE849C6B91A51A631E6BD930DFBBC72FE4
FILE: 06. - Cleo's Back.flac
Size: 21335568 Hash: 4DF7B819F8FD928FECFF55392B57D295 Accuracy: -m0
Conclusion: CDDA 100%
Signature: 0D6E6B637D3D17D5097F8D5B1C06828971703392
FILE: 05. - Phone Booth.flac
Size: 28449226 Hash: A0F20C0D8CD2873A8DD70270CA93621F Accuracy: -m0
Conclusion: CDDA 100%
Signature: 44521CBAB3B039FBC362B87D024E1A43F2AFC5A8
FILE: 04. - Hey Little Girl.flac
Size: 21007439 Hash: BA7A95CFAAECD4A8C9F46943CEA7E605 Accuracy: -m0
Conclusion: CDDA 100%
Signature: BF60254B70270D4DD0ADD63577EF196B026D8A03
FILE: 03. - I Don't Want No Woman.flac
Size: 22192483 Hash: 89BC1243D8FA647343BE74FFBB8B6DE4 Accuracy: -m0
Conclusion: CDDA 100%
Signature: A9B2AA1181420F11DB21B597FA83B3AD0364CF41
FILE: 02. - Love Somebody.flac
Size: 21812471 Hash: EA15AEBCEDF2865B5A57AE1A3168982A Accuracy: -m0
Conclusion: CDDA 100%
Signature: 93801CE63F7ED3AF602BEDF35DB015DAEF941292
FILE: 01. - Under Yonder.flac
Size: 21087542 Hash: ED2FAB2A811B4673DEF548B1D5CD3666 Accuracy: -m0
Conclusion: CDDA 100%
Signature: B08B631BAFDBA4DB2E3B1C963AB9EF0C32D8BBF3

Об альбоме (сборнике)

Silent Partner - rock/blues cover band
Родной город San Francisco
Credits
Art Direction – Bill Narum
Backing Vocals – Angela Strehli (tracks: 2), Derek O'Brien (3) (tracks: 7), Donna Pearl (tracks: 2)
Bass – Russell Jackson (3)
Drums – Tony Coleman (2)
Engineer [Mixing Engineer], Mixed By – Malcolm Harper
Executive-Producer – Clifford Antone
Guitar – Mel Brown
Harmonica – Mark Kazanoff (tracks: 8), Paul Orta (tracks: 7)
Lead Guitar – David Gonzalez (tracks: 8), Derek O'Brien (3) (tracks: 4)
Liner Notes – John T. Davis
Mixed By – Angela Strehli, Derek O'Brien (3), Russell Jackson (3)
Organ – Jr. Brantley (tracks: 4, 10)
Photography By [Cover] – Mark Guerra
Producer – Mel Brown (tracks: 3, 9), Russell Jackson (3) (tracks: 4, 7), Silent Partners (2) (tracks: 1, 6, 11), Tony Coleman (2) (tracks: 2, 5, 8, 10)
Rhythm Guitar – Derek O'Brien (3) (tracks: 1, 2, 5 to 7, 11)
Saxophone – Mark Kazanoff (tracks: 1, 2)
Vocals – Mel Brown (tracks: 3), Russell Jackson (3) (tracks: 4), Tony Coleman (2) (tracks: 2, 5)
Voice [Phone Voice] – Angel Brown (tracks: 5), Angela Strehli (tracks: 5)

http://www.silentpartnerrock.com/
https://www.allmusic.com/album/if-its-all-night-its-all-right-mw0000309567
https://www.discogs.com/Silent-Partners-If-Its-All-Night-Its-Allright/release/7039074
Antone's Records - ANT0010CD Format: CD, Album Country: US Released: 1989 Genre: Blues

To download the file disable ad blocking, and reload the page.

disable adblock How to disable ad blocking?

Download by magnet link 246 MB Download Torrent

Login using:

Загрузка...

Similar topics



   
Current time is: 16-Dec 19:06 :: All times are UTC + 3