Toler Townsend Band - Blues Bouleuard
Жанр: Blues/Rock
Год выпуска диска: 2009
Аудио кодек: APE
Тип рипа: image+.cue
Битрейт аудио: lossless
Продолжительность: 51:52

треклист

01. loneliness [0:04:51.71]
02. sorrys not enougn [0:04:05.51]
03. novato moon [0:05:02.01]
04. full time fool [0:03:46.10]
05. ali shuffle [0:06:17.03]
06. just let go [0:04:47.72]
07. ungly rumors [0:04:00.56]
08. love never felt like this [0:04:16.65]
09. good love goes bad [0:04:14.70]
10. dark clouds [0:04:37.01]
11. living in your past [0:05:52.00]

EAC

Exact Audio Copy V0.99 prebeta 4 from 23. January 2008
Отчёт EAC об извлечении, выполненном 9. августа 2009, 22:52
Toler Townsend Band / Blues Bouleuard
Дисковод: PLEXTOR DVDR PX-820A Adapter: 0 ID: 1
Режим чтения : Достоверность
Использование точного потока : Да
Отключение кэша аудио : Да
Использование указателей C2 : Нет
Коррекция смещения при чтении : 48
Способность читать области Lead-in и Lead-out : Нет
Заполнение пропущенных сэмплов тишиной : Да
Удаление блоков с тишиной в начале и конце : Нет
При вычислениях CRC использовались нулевые сэмплы : Да
Интерфейс : Встроенный Win32-интерфейс для Win NT/2000
Выходной формат : Внутренние WAV-операции
Формат сэмплов : 44.100 Гц; 16 бит; стерео
TOC извлечённого CD
Трек | Старт | Длительность | Начальный сектор | Конечный сектор
---------------------------------------------------------------------
1 | 0:00.00 | 4:51.71 | 0 | 21895
2 | 4:51.71 | 4:05.51 | 21896 | 40321
3 | 8:57.47 | 5:02.01 | 40322 | 62972
4 | 13:59.48 | 3:46.10 | 62973 | 79932
5 | 17:45.58 | 6:17.03 | 79933 | 108210
6 | 24:02.61 | 4:47.72 | 108211 | 129807
7 | 28:50.58 | 4:00.56 | 129808 | 147863
8 | 32:51.39 | 4:16.65 | 147864 | 167128
9 | 37:08.29 | 4:14.70 | 167129 | 186248
10 | 41:23.24 | 4:37.01 | 186249 | 207024
11 | 46:00.25 | 5:52.00 | 207025 | 233424
Характеристики диапазона извлечения и сообщения об ошибках
Выбранный диапазон
Имя файла D:\Раздача 3\TOLER TOWNSEND BAND\Toler Townsend Band - Blues Bouleuard.wav
Пиковый уровень 100.0 %
Качество диапазона 100.0 %
CRC копии CAD8D802
Копирование... OK
Ошибок не произошло
AccurateRip: сводка
Трек 1 нет в базе данных
Трек 2 нет в базе данных
Трек 3 нет в базе данных
Трек 4 нет в базе данных
Трек 5 нет в базе данных
Трек 6 нет в базе данных
Трек 7 нет в базе данных
Трек 8 нет в базе данных
Трек 9 нет в базе данных
Трек 10 нет в базе данных
Трек 11 нет в базе данных
Ни одного трека нет в базе AccurateRip
Конец отчёта
Рип свой

To download the file disable ad blocking, and reload the page.

disable adblock How to disable ad blocking?

Download by magnet link 345 MB Download Torrent

Login using:

Similar topics

(Rock/Blues Rock) Tyler Morris Band - Next In Line - 2018, MP3, 320 kbps
 93 MB   0 | 0   08-Feb-18 08:35   0


   
Current time is: 18-Oct 06:07 :: All times are UTC ± 0