Hot Monkey Love - Speakin' Evil
Жанр: Blues/Rock
Год выпуска диска: 2007
Аудио кодек: APE
Тип рипа: image+.cue
Битрейт аудио: lossless
Продолжительность: 49:35

треклист

01. Palace Of The King [0:02:47.23]
02. Angel [0:04:15.32]
03. Fallin' [0:03:36.69]
04. My Confession [0:02:55.16]
05. Come On In This House [0:05:06.68]
06. Weight Off My Shoulders [0:04:24.58]
07. The More You Lie To Me [0:03:24.52]
08. Stay [0:05:12.66]
09. Speakin' Evil [0:03:52.28]
10. 3 O'clock In The Morning [0:03:52.43]
11. Stop Breaking Down [0:03:40.67]
12. I've Been Loving You Too Long [0:03:41.28]
13. The Reason [0:02:44.04]

EAC

Exact Audio Copy V0.99 prebeta 4 from 23. January 2008
Отчёт EAC об извлечении, выполненном 31. декабря 2008, 11:38
Hot Monkey Love / Speakin' Evil
Дисковод: Optiarc DVD RW AD-7170A Adapter: 0 ID: 1
Режим чтения : Достоверность
Использование точного потока : Да
Отключение кэша аудио : Да
Использование указателей C2 : Нет
Коррекция смещения при чтении : 48
Способность читать области Lead-in и Lead-out : Нет
Заполнение пропущенных сэмплов тишиной : Да
Удаление блоков с тишиной в начале и конце : Нет
При вычислениях CRC использовались нулевые сэмплы : Да
Интерфейс : Встроенный Win32-интерфейс для Win NT/2000
Выходной формат : Внутренние WAV-операции
Формат сэмплов : 44.100 Гц; 16 бит; стерео
TOC извлечённого CD
Трек | Старт | Длительность | Начальный сектор | Конечный сектор
---------------------------------------------------------------------
1 | 0:00.00 | 2:47.23 | 0 | 12547
2 | 2:47.23 | 4:15.32 | 12548 | 31704
3 | 7:02.55 | 3:36.69 | 31705 | 47973
4 | 10:39.49 | 2:55.16 | 47974 | 61114
5 | 13:34.65 | 5:06.68 | 61115 | 84132
6 | 18:41.58 | 4:24.58 | 84133 | 103990
7 | 23:06.41 | 3:24.52 | 103991 | 119342
8 | 26:31.18 | 5:12.66 | 119343 | 142808
9 | 31:44.09 | 3:52.28 | 142809 | 160236
10 | 35:36.37 | 3:52.43 | 160237 | 177679
11 | 39:29.05 | 3:40.67 | 177680 | 194246
12 | 43:09.72 | 3:41.28 | 194247 | 210849
13 | 46:51.25 | 2:44.04 | 210850 | 223153
Характеристики диапазона извлечения и сообщения об ошибках
Выбранный диапазон
Имя файла D:\Муз раздача 6\Hot Monkey Love\Hot Monkey Love - Speakin' Evil.wav
Пиковый уровень 96.6 %
Качество диапазона 100.0 %
CRC копии 6C45D789
Копирование... OK
Ошибок не произошло
Конец отчёта

To download the file disable ad blocking, and reload the page.

disable adblock How to disable ad blocking?

Download by magnet link 354 MB Download Torrent

Login using:

Загрузка...

Similar topics

(Blues Rock) [CD] Joe Bonamassa - Redemption - 2018, FLAC (tracks), lossless
 438 MB   0 | 0   13-Sep-18 19:35   20


   
Current time is: 19-Dec 18:21 :: All times are UTC + 3