Gregg Allman / Southern Blood
Жанр: Southern Blues Rock/Americana
Носитель: CD
Страна-производитель диска (релиза): Russia
Год издания: 2017
Издатель (лейбл): Time Blues
Страна исполнителя (группы): USA
Аудиокодек: FLAC (*.flac)
Тип рипа: image+.cue
Битрейт аудио: lossless
Продолжительность: 59'01''
Источник (релизер): BluesHouse
Наличие сканов в содержимом раздачи: да
Треклист:
CD: Gregg Allman - Southern Blood
01. My Only True Friend [0:06:19.01]
02. Once I Was [0:03:59.30]
03. Going Going Gone [0:04:32.33]
04. Black Muddy River [0:04:39.57]
05. I Love The Life I Live [0:03:34.28]
06. Willin' [0:03:38.01]
07. Blind Bats And Swamp Rats [0:04:34.51]
08. Out Of Left Field [0:04:12.03]
09. Love Like Kerosene [0:04:20.44]
10. Song For Adam [0:06:31.66]
11. I Love The Life I Live (live) [0:05:26.40]
12. Love Like Kerosene (live) [0:07:10.29]

Лог создания рипа

Exact Audio Copy V1.3 from 2. September 2016
Отчёт EAC об извлечении, выполненном 3. октября 2017, 22:04
Gregg Allman / Southern Blood
Дисковод: ASUS DRW-24B3ST Adapter: 1 ID: 0
Режим чтения : Достоверность
Использование точного потока : Да
Отключение кэша аудио : Да
Использование указателей C2 : Нет
Коррекция смещения при чтении : 6
Способность читать области Lead-in и Lead-out : Нет
Заполнение пропущенных сэмплов тишиной : Да
Удаление блоков с тишиной в начале и конце : Нет
При вычислениях CRC использовались нулевые сэмплы : Да
Интерфейс : Встроенный Win32-интерфейс для Win NT/2000
Выходной формат : Пользовательский кодировщик
Выбранный битрейт : 768 kBit/s
Качество : Высокий
Добавление ID3-тега : Нет
Утилита сжатия : C:\Program Files (x86)\Exact Audio Copy\FLAC\FLAC.EXE
Дополнительные параметры : -6 -V -T "ARTIST=%artist%" -T "TITLE=%title%" -T "ALBUM=%albumtitle%" -T "DATE=%year%" -T "TRACKNUMBER=%tracknr%" -T "GENRE=%genre%" -T "COMMENT=%comment%" -T "BAND=%albuminterpret%" -T "ALBUMARTIST=%albuminterpret%" -T "COMPOSER=%composer%" %haslyrics%--tag-from-file=LYRICS="%lyricsfile%"%haslyrics% -T "DISCNUMBER=%cdnumber%" -T "TOTALDISCS=%totalcds%" -T "TOTALTRACKS=%numtracks%" %hascover%--picture="%coverfile%"%hascover% %source% -o %dest%
TOC извлечённого CD
Трек | Старт | Длительность | Начальный сектор | Конечный сектор
---------------------------------------------------------------------
1 | 0:00.00 | 6:19.01 | 0 | 28425
2 | 6:19.01 | 3:59.30 | 28426 | 46380
3 | 10:18.31 | 4:32.33 | 46381 | 66813
4 | 14:50.64 | 4:39.57 | 66814 | 87795
5 | 19:30.46 | 3:34.28 | 87796 | 103873
6 | 23:04.74 | 3:38.01 | 103874 | 120224
7 | 26:43.00 | 4:34.51 | 120225 | 140825
8 | 31:17.51 | 4:12.03 | 140826 | 159728
9 | 35:29.54 | 4:20.44 | 159729 | 179272
10 | 39:50.23 | 6:31.66 | 179273 | 208663
11 | 46:22.14 | 5:26.40 | 208664 | 233153
12 | 51:48.54 | 7:10.29 | 233154 | 265432
Характеристики диапазона извлечения и сообщения об ошибках
Выбранный диапазон
Имя файла K:\My Uploads-11\Gregg Allman - Southern Blood - 2017 59'01''\Gregg Allman - Southern Blood.wav
Пиковый уровень 100.0 %
Скорость извлечения 8.8 X
Качество диапазона 99.9 %
CRC теста 0E79D1B0
CRC копии 0E79D1B0
Копирование... OK
Ошибок не произошло
Конец отчёта
---- CUETools DB Plugin V2.1.6
[CTDB TOCID: iqkwy0FMzHpwnVUoxKpkVrRzZzY-] found
Submit result: iqkwy0FMzHpwnVUoxKpkVrRzZzY- has been confirmed
Track | CTDB Status
1 | (26/26) Accurately ripped
2 | (26/26) Accurately ripped
3 | (26/26) Accurately ripped
4 | (26/26) Accurately ripped
5 | (26/26) Accurately ripped
6 | (26/26) Accurately ripped
7 | (26/26) Accurately ripped
8 | (26/26) Accurately ripped
9 | (26/26) Accurately ripped
10 | (26/26) Accurately ripped
11 | (26/26) Accurately ripped
12 | (26/26) Accurately ripped
==== Контрольная сумма отчёта 8AB3D60125386A79C5BEB640A5450602F7AB4BAC3995B4E105947CA8D5A44F18 ====

Содержание индексной карты (.CUE)

REM GENRE Rock
REM DATE 2017
REM DISCID 9C0DD30C
REM COMMENT "ExactAudioCopy v1.3"
PERFORMER "Gregg Allman"
TITLE "Southern Blood"
REM COMPOSER ""
FILE "Gregg Allman - Southern Blood.flac" WAVE
TRACK 01 AUDIO
TITLE "My Only True Friend"
PERFORMER "Gregg Allman"
REM COMPOSER ""
INDEX 01 00:00:00
TRACK 02 AUDIO
TITLE "Once I Was"
PERFORMER "Gregg Allman"
REM COMPOSER ""
INDEX 01 06:19:01
TRACK 03 AUDIO
TITLE "Going Going Gone"
PERFORMER "Gregg Allman"
REM COMPOSER ""
INDEX 01 10:18:31
TRACK 04 AUDIO
TITLE "Black Muddy River"
PERFORMER "Gregg Allman"
REM COMPOSER ""
INDEX 01 14:50:64
TRACK 05 AUDIO
TITLE "I Love The Life I Live"
PERFORMER "Gregg Allman"
REM COMPOSER ""
INDEX 01 19:30:46
TRACK 06 AUDIO
TITLE "Willin'"
PERFORMER "Gregg Allman"
REM COMPOSER ""
INDEX 01 23:04:74
TRACK 07 AUDIO
TITLE "Blind Bats And Swamp Rats"
PERFORMER "Gregg Allman"
REM COMPOSER ""
INDEX 01 26:43:00
TRACK 08 AUDIO
TITLE "Out Of Left Field"
PERFORMER "Gregg Allman"
REM COMPOSER ""
INDEX 01 31:17:51
TRACK 09 AUDIO
TITLE "Love Like Kerosene"
PERFORMER "Gregg Allman"
REM COMPOSER ""
INDEX 01 35:29:54
TRACK 10 AUDIO
TITLE "Song For Adam"
PERFORMER "Gregg Allman"
REM COMPOSER ""
INDEX 01 39:50:23
TRACK 11 AUDIO
TITLE "I Love The Life I Live (live)"
PERFORMER "Gregg Allman"
REM COMPOSER ""
INDEX 01 46:22:14
TRACK 12 AUDIO
TITLE "Love Like Kerosene (live)"
PERFORMER "Gregg Allman"
REM COMPOSER ""
INDEX 01 51:48:54

Лог проверки качества


Доп. информация: Альбом с добавленными двумя концертными треками.
Приветствуется замена на оригинал!

To download the file disable ad blocking, and reload the page.

disable adblock How to disable ad blocking?

Download by magnet link 460 MB Download Torrent

Login using:

Загрузка...

Similar topics



   
Current time is: 19-Dec 19:31 :: All times are UTC + 3