Taste / I'll Remember
Жанр: Rock, Blues, Blues Rock
Носитель: CD
Страна-производитель диска (релиза): EU
Год издания: 2015
Издатель (лейбл): Polydor, Universal Music Catalogue
Номер по каталогу: 472 269-7
Аудиокодек: FLAC (*.flac)
Тип рипа: image+.cue
Битрейт аудио: lossless
Продолжительность: 04:28:34
Источник (релизер): London
Наличие сканов в содержимом раздачи: да

1969 Taste

01. Blister On The Moon 3:27
02. Leavin’ Blues 4:16
03. Sugar Mama 7:16
04. Hail 2:36
05. Born On The Wrong Side Of Time 4:01
06. Dual Carriageway Pain 3:12
07. Same Old Story 3:32
08. Catfish 8:04
09. I’m Moving On 2:29
Bonus Tracks
10. Blister On The Moon 3:21*
11. Leavin’ Blues 4:31 *
12. Hail 2:37*
13. Dual Carriageway Pain 3:13*
14. Same Old Story 3:26**
15. Catfish 6:55*
*Alternate version
**Alternate version - no vocals

Отчет EAC

Exact Audio Copy V1.3 from 2. September 2016
EAC extraction logfile from 7. October 2017, 7:59
Taste / I'll Remember [Disc One]
Used drive : ATAPI iHAS122 C Adapter: 1 ID: 0
Read mode : Secure
Utilize accurate stream : Yes
Defeat audio cache : Yes
Make use of C2 pointers : No
Read offset correction : 6
Overread into Lead-In and Lead-Out : No
Fill up missing offset samples with silence : Yes
Delete leading and trailing silent blocks : No
Null samples used in CRC calculations : Yes
Used interface : Native Win32 interface for Win NT & 2000
Used output format : Internal WAV Routines
Sample format : 44.100 Hz; 16 Bit; Stereo
TOC of the extracted CD
Track | Start | Length | Start sector | End sector
---------------------------------------------------------
1 | 0:00.00 | 3:28.49 | 0 | 15648
2 | 3:28.49 | 4:17.44 | 15649 | 34967
3 | 7:46.18 | 7:17.42 | 34968 | 67784
4 | 15:03.60 | 2:38.09 | 67785 | 79643
5 | 17:41.69 | 4:03.33 | 79644 | 97901
6 | 21:45.27 | 3:14.15 | 97902 | 112466
7 | 24:59.42 | 3:34.08 | 112467 | 128524
8 | 28:33.50 | 8:05.38 | 128525 | 164937
9 | 36:39.13 | 2:32.63 | 164938 | 176400
10 | 39:12.01 | 3:22.64 | 176401 | 191614
11 | 42:34.65 | 4:32.61 | 191615 | 212075
12 | 47:07.51 | 2:39.27 | 212076 | 224027
13 | 49:47.03 | 3:14.69 | 224028 | 238646
14 | 53:01.72 | 3:27.55 | 238647 | 254226
15 | 56:29.52 | 6:55.45 | 254227 | 285396
Range status and errors
Selected range
Filename C:\Users\London\Desktop\Taste - I'll Remember [Disc One].wav
Peak level 98.8 %
Extraction speed 8.7 X
Range quality 100.0 %
Test CRC 15E6BC6F
Copy CRC 15E6BC6F
Copy OK
No errors occurred
AccurateRip summary
Track 1 accurately ripped (confidence 22) [D135765E] (AR v2)
Track 2 accurately ripped (confidence 22) [3E9DD19F] (AR v2)
Track 3 accurately ripped (confidence 22) [863DF2FC] (AR v2)
Track 4 accurately ripped (confidence 22) [7F0D7B3E] (AR v2)
Track 5 accurately ripped (confidence 22) [D32DF507] (AR v2)
Track 6 accurately ripped (confidence 22) [A5F49DE4] (AR v2)
Track 7 accurately ripped (confidence 22) [402B4062] (AR v2)
Track 8 accurately ripped (confidence 22) [A7A73E32] (AR v2)
Track 9 accurately ripped (confidence 22) [5DE7BAA9] (AR v2)
Track 10 accurately ripped (confidence 22) [62757B92] (AR v2)
Track 11 accurately ripped (confidence 22) [F16CC454] (AR v2)
Track 12 accurately ripped (confidence 22) [4F918BE2] (AR v2)
Track 13 accurately ripped (confidence 22) [29130108] (AR v2)
Track 14 accurately ripped (confidence 22) [BAD6F9C9] (AR v2)
Track 15 accurately ripped (confidence 22) [6D564DD5] (AR v2)
All tracks accurately ripped
End of status report
---- CUETools DB Plugin V2.1.6
[CTDB TOCID: xarElbv78NmPTWU46p0xIw2Rcf8-] found
Submit result: xarElbv78NmPTWU46p0xIw2Rcf8- has been confirmed
Track | CTDB Status
1 | (60/60) Accurately ripped
2 | (59/60) Accurately ripped
3 | (59/60) Accurately ripped
4 | (60/60) Accurately ripped
5 | (60/60) Accurately ripped
6 | (60/60) Accurately ripped
7 | (60/60) Accurately ripped
8 | (57/60) Accurately ripped
9 | (60/60) Accurately ripped
10 | (59/60) Accurately ripped
11 | (59/60) Accurately ripped
12 | (60/60) Accurately ripped
13 | (59/60) Accurately ripped
14 | (60/60) Accurately ripped
15 | (60/60) Accurately ripped
==== Log checksum 5CBC762E93384B1D3581F8F88BFB2473E1BD4F674A63EE6FFBC175C7F7B56ACC ====

Содержание индексной карты (.CUE)

REM GENRE Blues
REM DATE 2015
REM DISCID C40EDD0F
REM COMMENT ExactAudioCopy v1.3
PERFORMER "Taste"
TITLE "I'll Remember [Disc One]"
FILE "Taste - I'll Remember [Disc One].flac" WAVE
TRACK 01 AUDIO
TITLE "Blister On The Moon"
INDEX 01 00:00:00
TRACK 02 AUDIO
TITLE "Leavin' Blues"
INDEX 00 03:27:33
INDEX 01 03:28:49
TRACK 03 AUDIO
TITLE "SugarMama"
INDEX 00 07:45:11
INDEX 01 07:46:18
TRACK 04 AUDIO
TITLE "Hail"
INDEX 00 15:02:38
INDEX 01 15:03:60
TRACK 05 AUDIO
TITLE "Born On The Wrong Side Of Time"
INDEX 00 17:40:46
INDEX 01 17:41:69
TRACK 06 AUDIO
TITLE "Dual Carriageway Pain"
INDEX 00 21:43:66
INDEX 01 21:45:27
TRACK 07 AUDIO
TITLE "Same Old Story"
INDEX 00 24:58:18
INDEX 01 24:59:42
TRACK 08 AUDIO
TITLE "Catfish"
INDEX 00 28:32:14
INDEX 01 28:33:50
TRACK 09 AUDIO
TITLE "I'm Movin' On"
INDEX 00 36:37:60
INDEX 01 36:39:13
TRACK 10 AUDIO
TITLE "Blister On The Moon"
INDEX 00 39:08:61
INDEX 01 39:12:01
TRACK 11 AUDIO
TITLE "Leavin' Blues"
INDEX 00 42:33:19
INDEX 01 42:34:65
TRACK 12 AUDIO
TITLE "Hail"
INDEX 00 47:06:08
INDEX 01 47:07:51
TRACK 13 AUDIO
TITLE "Dual Carriageway Pain"
INDEX 00 49:45:48
INDEX 01 49:47:03
TRACK 14 AUDIO
TITLE "Same Old Story"
INDEX 00 53:00:27
INDEX 01 53:01:72
TRACK 15 AUDIO
TITLE "Catfish"
INDEX 00 56:28:17
INDEX 01 56:29:52

DR log

foobar2000 1.3.13 / Dynamic Range Meter 1.1.1
log date: 2017-10-07 10:23:04
--------------------------------------------------------------------------------
Analyzed: Taste / I'll Remember [Disc One]
--------------------------------------------------------------------------------
DR Peak RMS Duration Track
--------------------------------------------------------------------------------
DR12 -0.10 dB -15.28 dB 3:29 01-Blister On The Moon
DR14 -0.12 dB -19.78 dB 4:18 02-Leavin' Blues
DR13 -0.10 dB -15.94 dB 7:18 03-SugarMama
DR15 -0.38 dB -20.02 dB 2:38 04-Hail
DR10 -1.16 dB -15.39 dB 4:03 05-Born On The Wrong Side Of Time
DR12 -0.10 dB -15.00 dB 3:14 06-Dual Carriageway Pain
DR12 -0.10 dB -14.85 dB 3:34 07-Same Old Story
DR12 -0.10 dB -15.13 dB 8:06 08-Catfish
DR14 -1.76 dB -19.32 dB 2:33 09-I'm Movin' On
DR13 -0.10 dB -15.15 dB 3:23 10-Blister On The Moon
DR14 -0.10 dB -18.71 dB 4:33 11-Leavin' Blues
DR14 -0.91 dB -20.02 dB 2:39 12-Hail
DR12 -0.10 dB -13.90 dB 3:15 13-Dual Carriageway Pain
DR12 -0.10 dB -14.08 dB 3:28 14-Same Old Story
DR12 -0.10 dB -14.48 dB 6:56 15-Catfish
--------------------------------------------------------------------------------
Number of tracks: 15
Official DR value: DR13
Samplerate: 44100 Hz
Channels: 2
Bits per sample: 16
Bitrate: 683 kbps
Codec: FLAC
================================================================================

1970 On The Boards

01. What’s Going On 2:47
02. Railway And Gun 3:36
03. It’s Happened Before, It’ll Happen Again 6:31
04. If The Day Was Any Longer 2:08
05. Morning Sun 2:38
06. Eat My Words 3:45
07. On The Boards 6:00
08. If I Don’t Sing I’ll Cry 2:38
09. See Here 3:03
10. I’ll Remember 3:00
Bonus Tracks
11. Railway And Gun (Take 2) 4:26*
12. See Here (Take 1) 3:13**
13. It’s Happened Before, It’ll Happen Again (Take 2) 10:56***
14. If The Day Was Any Longer 2:34***
15. Morning Sun 3:36***
16. It’s Happened Before, It’ll Happen Again 9:46***
*Off The Boards Mix
**Alternate version
***Beat Club TV Audio

Отчет EAC

Exact Audio Copy V1.3 from 2. September 2016
EAC extraction logfile from 7. October 2017, 8:32
Taste / I'll Remember [Disc Two]
Used drive : ATAPI iHAS122 C Adapter: 1 ID: 0
Read mode : Secure
Utilize accurate stream : Yes
Defeat audio cache : Yes
Make use of C2 pointers : No
Read offset correction : 6
Overread into Lead-In and Lead-Out : No
Fill up missing offset samples with silence : Yes
Delete leading and trailing silent blocks : No
Null samples used in CRC calculations : Yes
Used interface : Native Win32 interface for Win NT & 2000
Used output format : Internal WAV Routines
Sample format : 44.100 Hz; 16 Bit; Stereo
TOC of the extracted CD
Track | Start | Length | Start sector | End sector
---------------------------------------------------------
1 | 0:00.00 | 2:48.55 | 0 | 12654
2 | 2:48.55 | 3:38.39 | 12655 | 29043
3 | 6:27.19 | 6:33.55 | 29044 | 58573
4 | 13:00.74 | 2:09.69 | 58574 | 68317
5 | 15:10.68 | 2:39.65 | 68318 | 80307
6 | 17:50.58 | 3:47.00 | 80308 | 97332
7 | 21:37.58 | 6:02.23 | 97333 | 124505
8 | 27:40.06 | 2:39.74 | 124506 | 136504
9 | 30:20.05 | 3:05.44 | 136505 | 150423
10 | 33:25.49 | 3:04.23 | 150424 | 164246
11 | 36:29.72 | 4:28.06 | 164247 | 184352
12 | 40:58.03 | 3:15.00 | 184353 | 198977
13 | 44:13.03 | 10:57.40 | 198978 | 248292
14 | 55:10.43 | 2:36.23 | 248293 | 260015
15 | 57:46.66 | 3:37.28 | 260016 | 276318
16 | 61:24.19 | 9:46.31 | 276319 | 320299
Range status and errors
Selected range
Filename C:\Users\London\Desktop\Taste - I'll Remember [Disc Two].wav
Peak level 98.8 %
Extraction speed 9.4 X
Range quality 100.0 %
Test CRC D2848AC7
Copy CRC D2848AC7
Copy OK
No errors occurred
AccurateRip summary
Track 1 accurately ripped (confidence 22) [94C7ADDC] (AR v2)
Track 2 accurately ripped (confidence 22) [C517E8F5] (AR v2)
Track 3 accurately ripped (confidence 22) [2BB7991D] (AR v2)
Track 4 accurately ripped (confidence 22) [749CA188] (AR v2)
Track 5 accurately ripped (confidence 22) [78C07BAA] (AR v2)
Track 6 accurately ripped (confidence 22) [5592F3FF] (AR v2)
Track 7 accurately ripped (confidence 22) [F46D0DFF] (AR v2)
Track 8 accurately ripped (confidence 22) [4524B211] (AR v2)
Track 9 accurately ripped (confidence 22) [08DFEFB2] (AR v2)
Track 10 accurately ripped (confidence 22) [3CEF40E2] (AR v2)
Track 11 accurately ripped (confidence 22) [0C8C3B76] (AR v2)
Track 12 accurately ripped (confidence 22) [B136B444] (AR v2)
Track 13 accurately ripped (confidence 22) [F44D6CB6] (AR v2)
Track 14 accurately ripped (confidence 22) [4D780BC4] (AR v2)
Track 15 accurately ripped (confidence 22) [EC5AD982] (AR v2)
Track 16 accurately ripped (confidence 22) [F329A380] (AR v2)
All tracks accurately ripped
End of status report
---- CUETools DB Plugin V2.1.6
[CTDB TOCID: rr_TM9xAZTiG6X.drLJhFFAfoAk-] found
Submit result: rr_TM9xAZTiG6X.drLJhFFAfoAk- has been confirmed
Track | CTDB Status
1 | (56/56) Accurately ripped
2 | (56/56) Accurately ripped
3 | (55/56) Accurately ripped
4 | (56/56) Accurately ripped
5 | (56/56) Accurately ripped
6 | (56/56) Accurately ripped
7 | (55/56) Accurately ripped
8 | (56/56) Accurately ripped
9 | (56/56) Accurately ripped
10 | (56/56) Accurately ripped
11 | (56/56) Accurately ripped
12 | (56/56) Accurately ripped
13 | (55/56) Accurately ripped, or (1/56) differs in 2 samples @00:26:15
14 | (56/56) Accurately ripped
15 | (56/56) Accurately ripped
16 | (56/56) Accurately ripped
==== Log checksum CA7F493E08A9BF205AEC748855E13BDD9BC9B0B37FCE59BAED593253824BF492 ====

Содержание индексной карты (.CUE)

REM GENRE Blues
REM DATE 2015
REM DISCID DF10AE10
REM COMMENT ExactAudioCopy v1.3
PERFORMER "Taste"
TITLE "I'll Remember [Disc Two]"
FILE "Taste - I'll Remember [Disc Two].flac" WAVE
TRACK 01 AUDIO
TITLE "What's Going On"
INDEX 01 00:00:00
TRACK 02 AUDIO
TITLE "Railway And Gun"
INDEX 00 02:47:15
INDEX 01 02:48:55
TRACK 03 AUDIO
TITLE "It's Happened Before, It Will Happen Again"
INDEX 00 06:25:38
INDEX 01 06:27:19
TRACK 04 AUDIO
TITLE "If The Day Was Any Longer"
INDEX 00 12:58:70
INDEX 01 13:00:74
TRACK 05 AUDIO
TITLE "Morning Sun"
INDEX 00 15:09:10
INDEX 01 15:10:68
TRACK 06 AUDIO
TITLE "Eat My Words"
INDEX 00 17:48:72
INDEX 01 17:50:58
TRACK 07 AUDIO
TITLE "On The Boards"
INDEX 00 21:35:69
INDEX 01 21:37:58
TRACK 08 AUDIO
TITLE "If I Don't Sing I'll Cry"
INDEX 00 27:38:16
INDEX 01 27:40:06
TRACK 09 AUDIO
TITLE "See Here"
INDEX 00 30:18:14
INDEX 01 30:20:05
TRACK 10 AUDIO
TITLE "I'll Remember"
INDEX 00 33:24:01
INDEX 01 33:25:49
TRACK 11 AUDIO
TITLE "Railway And Gun"
INDEX 00 36:26:23
INDEX 01 36:29:72
TRACK 12 AUDIO
TITLE "See Here"
INDEX 00 40:56:57
INDEX 01 40:58:03
TRACK 13 AUDIO
TITLE "It's Happened Before, It Will Happen Again"
INDEX 00 44:11:03
INDEX 01 44:13:03
TRACK 14 AUDIO
TITLE "If The Day Was Any Longer"
INDEX 00 55:09:18
INDEX 01 55:10:43
TRACK 15 AUDIO
TITLE "Morning Sun"
INDEX 00 57:45:31
INDEX 01 57:46:66
TRACK 16 AUDIO
TITLE "It's Happened Before, It Will Happen Again"
INDEX 00 61:23:01
INDEX 01 61:24:19

DR log

foobar2000 1.3.13 / Dynamic Range Meter 1.1.1
log date: 2017-10-07 10:26:47
--------------------------------------------------------------------------------
Analyzed: Taste / I'll Remember [Disc Two]
--------------------------------------------------------------------------------
DR Peak RMS Duration Track
--------------------------------------------------------------------------------
DR11 -0.10 dB -12.82 dB 2:49 01-What's Going On
DR12 -0.10 dB -15.94 dB 3:39 02-Railway And Gun
DR11 -0.59 dB -14.88 dB 6:34 03-It's Happened Before, It Will Happen Again
DR13 -0.46 dB -16.22 dB 2:10 04-If The Day Was Any Longer
DR12 -0.10 dB -15.56 dB 2:40 05-Morning Sun
DR11 -0.10 dB -14.03 dB 3:47 06-Eat My Words
DR13 -0.10 dB -15.54 dB 6:02 07-On The Boards
DR12 -0.10 dB -13.95 dB 2:40 08-If I Don't Sing I'll Cry
DR12 -3.73 dB -22.60 dB 3:06 09-See Here
DR10 -0.10 dB -12.64 dB 3:04 10-I'll Remember
DR14 -0.10 dB -17.36 dB 4:28 11-Railway And Gun
DR13 -3.66 dB -22.34 dB 3:15 12-See Here
DR7 -0.10 dB -8.96 dB 10:58 13-It's Happened Before, It Will Happen Again
DR8 -1.52 dB -11.26 dB 2:36 14-If The Day Was Any Longer
DR7 -0.10 dB -8.25 dB 3:37 15-Morning Sun
DR8 -0.55 dB -10.08 dB 9:46 16-It's Happened Before, It Will Happen Again
--------------------------------------------------------------------------------
Number of tracks: 16
Official DR value: DR11
Samplerate: 44100 Hz
Channels: 2
Bits per sample: 16
Bitrate: 643 kbps
Codec: FLAC
================================================================================

1970 Live in Konserthuset

Recorded live in Konserthuset, Stockholm, Sweden, 1970
01. What’s Going On 6:14
02. Sugar Mama 6:48
03. Gamblin’ Blues 6:41
04. Sinner Boy 6:23
05. At The Bottom 3:19
06. She’s Nineteen Years Old 3:57
07. Morning Sun 4:18
08. Catfish 6:33
“BBC Live In Concert” “Off Air” Recording of Taste live at the Paris Theatre, London, 1970
09. I’ll Remember 6:14
10. Railway And Gun 4:58
11. Sugar Mama 7:19
12. Eat My Words 9:21
13. Catfish 5:27

Отчет EAC

Exact Audio Copy V1.3 from 2. September 2016
EAC extraction logfile from 7. October 2017, 8:52
Taste / I'll Remember [Disc Three]
Used drive : ATAPI iHAS122 C Adapter: 1 ID: 0
Read mode : Secure
Utilize accurate stream : Yes
Defeat audio cache : Yes
Make use of C2 pointers : No
Read offset correction : 6
Overread into Lead-In and Lead-Out : No
Fill up missing offset samples with silence : Yes
Delete leading and trailing silent blocks : No
Null samples used in CRC calculations : Yes
Used interface : Native Win32 interface for Win NT & 2000
Used output format : Internal WAV Routines
Sample format : 44.100 Hz; 16 Bit; Stereo
TOC of the extracted CD
Track | Start | Length | Start sector | End sector
---------------------------------------------------------
1 | 0:00.00 | 6:14.17 | 0 | 28066
2 | 6:14.17 | 6:48.12 | 28067 | 58678
3 | 13:02.29 | 6:41.05 | 58679 | 88758
4 | 19:43.34 | 6:23.26 | 88759 | 117509
5 | 26:06.60 | 3:19.32 | 117510 | 132466
6 | 29:26.17 | 3:57.02 | 132467 | 150243
7 | 33:23.19 | 4:18.48 | 150244 | 169641
8 | 37:41.67 | 6:35.46 | 169642 | 199312
9 | 44:17.38 | 6:15.22 | 199313 | 227459
10 | 50:32.60 | 4:59.00 | 227460 | 249884
11 | 55:31.60 | 7:20.71 | 249885 | 282955
12 | 62:52.56 | 9:18.56 | 282956 | 324861
13 | 72:11.37 | 5:34.03 | 324862 | 349914
Range status and errors
Selected range
Filename C:\Users\London\Desktop\Taste - I'll Remember [Disc Three].wav
Peak level 98.8 %
Extraction speed 9.7 X
Range quality 100.0 %
Test CRC 3408D363
Copy CRC 3408D363
Copy OK
No errors occurred
AccurateRip summary
Track 1 accurately ripped (confidence 20) [77BACE8D] (AR v2)
Track 2 accurately ripped (confidence 20) [3F86EC59] (AR v2)
Track 3 accurately ripped (confidence 20) [0FCDA55F] (AR v2)
Track 4 accurately ripped (confidence 20) [FBC02ECB] (AR v2)
Track 5 accurately ripped (confidence 20) [BA7F73CB] (AR v2)
Track 6 accurately ripped (confidence 20) [6E7C6AFD] (AR v2)
Track 7 accurately ripped (confidence 20) [420473DB] (AR v2)
Track 8 accurately ripped (confidence 20) [6053B33D] (AR v2)
Track 9 accurately ripped (confidence 20) [6157756A] (AR v2)
Track 10 accurately ripped (confidence 20) [8205CFC3] (AR v2)
Track 11 accurately ripped (confidence 20) [4D1227A1] (AR v2)
Track 12 accurately ripped (confidence 20) [8029A926] (AR v2)
Track 13 accurately ripped (confidence 19) [040FF20B] (AR v2)
All tracks accurately ripped
End of status report
---- CUETools DB Plugin V2.1.6
[CTDB TOCID: kOZN6ti3APDs3LAO5ryFKmkiJ3M-] found
Submit result: kOZN6ti3APDs3LAO5ryFKmkiJ3M- has been confirmed
Track | CTDB Status
1 | (55/56) Accurately ripped
2 | (56/56) Accurately ripped
3 | (55/56) Accurately ripped
4 | (55/56) Accurately ripped
5 | (54/56) Accurately ripped
6 | (56/56) Accurately ripped
7 | (56/56) Accurately ripped
8 | (55/56) Accurately ripped
9 | (55/56) Accurately ripped
10 | (56/56) Accurately ripped
11 | (56/56) Accurately ripped
12 | (56/56) Accurately ripped
13 | (55/56) Accurately ripped
==== Log checksum 1C0E87BFDC755A7454CCE34E15810BBCDE447A2A18F2981A2821B29D002A46FB ====

Содержание индексной карты (.CUE)

REM GENRE Blues
REM DATE 1970
REM DISCID C012390D
REM COMMENT ExactAudioCopy v1.3
PERFORMER "Taste"
TITLE "I'll Remember [Disc Three]"
FILE "Taste - I'll Remember [Disc Three].flac" WAVE
TRACK 01 AUDIO
TITLE "What's Going On"
INDEX 01 00:00:00
TRACK 02 AUDIO
TITLE "Sugar Mamma"
INDEX 01 06:14:17
TRACK 03 AUDIO
TITLE "Gamblin' Blues"
INDEX 01 13:02:29
TRACK 04 AUDIO
TITLE "Sinner Boy"
INDEX 01 19:43:34
TRACK 05 AUDIO
TITLE "At The Bottom"
INDEX 01 26:06:60
TRACK 06 AUDIO
TITLE "She's 19 Years Old"
INDEX 01 29:26:17
TRACK 07 AUDIO
TITLE "Morning Sun"
INDEX 01 33:23:19
TRACK 08 AUDIO
TITLE "Catfish"
INDEX 01 37:41:67
TRACK 09 AUDIO
TITLE "I'll Remember"
INDEX 00 44:15:42
INDEX 01 44:17:38
TRACK 10 AUDIO
TITLE "Railway And Gun"
INDEX 01 50:32:60
TRACK 11 AUDIO
TITLE "Sugar Mama"
INDEX 01 55:31:60
TRACK 12 AUDIO
TITLE "Eat My Words"
INDEX 01 62:52:56
TRACK 13 AUDIO
TITLE "Catfish"
INDEX 01 72:11:37

DR Log

foobar2000 1.3.13 / Dynamic Range Meter 1.1.1
log date: 2017-10-07 11:07:39
--------------------------------------------------------------------------------
Analyzed: Taste / I'll Remember [Disc Three]
--------------------------------------------------------------------------------
DR Peak RMS Duration Track
--------------------------------------------------------------------------------
DR8 -0.10 dB -9.90 dB 6:14 01-What's Going On
DR10 -0.10 dB -12.99 dB 6:48 02-Sugar Mamma
DR12 -0.49 dB -15.72 dB 6:41 03-Gamblin' Blues
DR8 -0.21 dB -10.72 dB 6:23 04-Sinner Boy
DR11 -0.10 dB -13.29 dB 3:19 05-At The Bottom
DR10 -0.68 dB -15.49 dB 3:57 06-She's 19 Years Old
DR9 -0.10 dB -10.91 dB 4:19 07-Morning Sun
DR8 -0.10 dB -10.86 dB 6:36 08-Catfish
DR6 -0.10 dB -7.93 dB 6:15 09-I'll Remember
DR7 -0.10 dB -8.86 dB 4:59 10-Railway And Gun
DR6 -0.10 dB -9.04 dB 7:21 11-Sugar Mama
DR6 -0.10 dB -8.84 dB 9:19 12-Eat My Words
DR5 -0.10 dB -7.16 dB 5:34 13-Catfish
--------------------------------------------------------------------------------
Number of tracks: 13
Official DR value: DR8
Samplerate: 44100 Hz
Channels: 2
Bits per sample: 16
Bitrate: 683 kbps
Codec: FLAC
================================================================================

1968 The Belfast (early) Session

01. Wee Wee Baby 2:43
02. How Many More Years 3:23
03. Take It Easy Baby 7:07
04. Pardon Me Mister 2:41
05. You’ve Got To Pay 3:53
06. Norman Invasion 2:58
07. Worried Man 2:29
08. Blister On The Moon 3:31
09. Born On The Wrong Side Of Time 3:22
“Live At Woburn Abbey” Recorded live at Woburn Abbey Festival, UK, 1968
10. Summertime 1:29
11. Blister On The Moon 3:36
12. I Got My Brand On You 7:23
13. Medley:
Rock Me Baby / Bye Bye Bird / Baby Please Don’t Go / You Shook Me Baby 10:58

Отчет EAC

Exact Audio Copy V1.3 from 2. September 2016
EAC extraction logfile from 7. October 2017, 9:32
Taste / I'll Remember [Disc Four]
Used drive : ATAPI iHAS122 C Adapter: 1 ID: 0
Read mode : Secure
Utilize accurate stream : Yes
Defeat audio cache : Yes
Make use of C2 pointers : No
Read offset correction : 6
Overread into Lead-In and Lead-Out : No
Fill up missing offset samples with silence : Yes
Delete leading and trailing silent blocks : No
Null samples used in CRC calculations : Yes
Used interface : Native Win32 interface for Win NT & 2000
Used output format : Internal WAV Routines
Sample format : 44.100 Hz; 16 Bit; Stereo
TOC of the extracted CD
Track | Start | Length | Start sector | End sector
---------------------------------------------------------
1 | 0:00.00 | 2:48.00 | 0 | 12599
2 | 2:48.00 | 3:27.10 | 12600 | 28134
3 | 6:15.10 | 7:12.39 | 28135 | 60573
4 | 13:27.49 | 2:44.73 | 60574 | 72946
5 | 16:12.47 | 3:57.34 | 72947 | 90755
6 | 20:10.06 | 3:02.08 | 90756 | 104413
7 | 23:12.14 | 2:34.55 | 104414 | 116018
8 | 25:46.69 | 3:32.18 | 116019 | 131936
9 | 29:19.12 | 3:24.52 | 131937 | 147288
10 | 32:43.64 | 1:29.39 | 147289 | 154002
11 | 34:13.28 | 3:36.36 | 154003 | 170238
12 | 37:49.64 | 7:23.71 | 170239 | 203534
13 | 45:13.60 | 10:58.51 | 203535 | 252935
Range status and errors
Selected range
Filename C:\Users\London\Desktop\Taste - I'll Remember [Disc Four].wav
Peak level 98.8 %
Extraction speed 3.2 X
Range quality 99.9 %
Test CRC A51D327F
Copy CRC A51D327F
Copy OK
No errors occurred
AccurateRip summary
Track 1 accurately ripped (confidence 19) [69EAB1E4] (AR v2)
Track 2 accurately ripped (confidence 19) [6F2EFBC7] (AR v2)
Track 3 accurately ripped (confidence 19) [DC8E838E] (AR v2)
Track 4 accurately ripped (confidence 19) [902C658C] (AR v2)
Track 5 accurately ripped (confidence 19) [0DC24E20] (AR v2)
Track 6 accurately ripped (confidence 19) [92026242] (AR v2)
Track 7 accurately ripped (confidence 19) [A9A22DA1] (AR v2)
Track 8 accurately ripped (confidence 19) [E8B4B793] (AR v2)
Track 9 accurately ripped (confidence 19) [C1CED851] (AR v2)
Track 10 accurately ripped (confidence 19) [0CDA945F] (AR v2)
Track 11 accurately ripped (confidence 19) [3CD487E8] (AR v2)
Track 12 accurately ripped (confidence 19) [5D579984] (AR v2)
Track 13 accurately ripped (confidence 19) [0BBA452A] (AR v2)
All tracks accurately ripped
End of status report
---- CUETools DB Plugin V2.1.6
[CTDB TOCID: _tkfCgAoxfVuCBHLtQNjukZ2MIA-] found
Submit result: _tkfCgAoxfVuCBHLtQNjukZ2MIA- has been confirmed
Track | CTDB Status
1 | (54/54) Accurately ripped
2 | (54/54) Accurately ripped
3 | (53/54) Accurately ripped
4 | (54/54) Accurately ripped
5 | (53/54) Accurately ripped
6 | (53/54) Accurately ripped
7 | (54/54) Accurately ripped
8 | (53/54) Accurately ripped
9 | (54/54) Accurately ripped
10 | (54/54) Accurately ripped
11 | (54/54) Accurately ripped
12 | (54/54) Accurately ripped
13 | (54/54) Accurately ripped
==== Log checksum 48C26824376B2D9787DB3E0558138A1FA69C5F4735AFC68EAC47C0EF790D5200 ====

Содержание индексной карты (.CUE)

REM GENRE Blues
REM DATE 2015
REM DISCID B40D2C0D
REM COMMENT ExactAudioCopy v1.3
PERFORMER "Taste"
TITLE "I'll Remember [Disc Four]"
FILE "Taste - I'll Remember [Disc Four].flac" WAVE
TRACK 01 AUDIO
TITLE "Wee Wee Baby"
INDEX 01 00:00:00
TRACK 02 AUDIO
TITLE "How Many More Years"
INDEX 00 02:46:29
INDEX 01 02:48:00
TRACK 03 AUDIO
TITLE "Take It Easy Baby"
INDEX 00 06:13:49
INDEX 01 06:15:10
TRACK 04 AUDIO
TITLE "Pardon Me Mister"
INDEX 00 13:26:00
INDEX 01 13:27:49
TRACK 05 AUDIO
TITLE "You've GotTo Pay"
INDEX 00 16:11:12
INDEX 01 16:12:47
TRACK 06 AUDIO
TITLE "Norman Invasion"
INDEX 00 20:08:37
INDEX 01 20:10:06
TRACK 07 AUDIO
TITLE "Worried Man"
INDEX 00 23:10:49
INDEX 01 23:12:14
TRACK 08 AUDIO
TITLE "Blister On The Moon"
INDEX 00 25:44:05
INDEX 01 25:46:69
TRACK 09 AUDIO
TITLE "Born On The Wrong Side Of Time"
INDEX 00 29:18:00
INDEX 01 29:19:12
TRACK 10 AUDIO
TITLE "Summertime"
INDEX 00 32:41:57
INDEX 01 32:43:64
TRACK 11 AUDIO
TITLE "Blister On The Moon"
INDEX 01 34:13:28
TRACK 12 AUDIO
TITLE "I Got My Brand On You"
INDEX 01 37:49:64
TRACK 13 AUDIO
TITLE "Medley"
INDEX 01 45:13:60

DR Log

foobar2000 1.3.13 / Dynamic Range Meter 1.1.1
log date: 2017-10-07 11:12:32
--------------------------------------------------------------------------------
Analyzed: Taste / I'll Remember [Disc Four]
--------------------------------------------------------------------------------
DR Peak RMS Duration Track
--------------------------------------------------------------------------------
DR9 -0.10 dB -10.76 dB 2:48 01-Wee Wee Baby
DR10 -0.10 dB -11.09 dB 3:27 02-How Many More Years
DR11 -0.10 dB -13.49 dB 7:13 03-Take It Easy Baby
DR10 -0.10 dB -12.20 dB 2:45 04-Pardon Me Mister
DR8 -0.10 dB -10.90 dB 3:57 05-You've GotTo Pay
DR10 -0.10 dB -12.91 dB 3:02 06-Norman Invasion
DR10 -0.10 dB -12.41 dB 2:35 07-Worried Man
DR8 -0.23 dB -9.66 dB 3:32 08-Blister On The Moon
DR9 -0.31 dB -10.83 dB 3:25 09-Born On The Wrong Side Of Time
DR9 -0.10 dB -12.31 dB 1:30 10-Summertime
DR7 -0.10 dB -9.18 dB 3:36 11-Blister On The Moon
DR10 -0.10 dB -13.80 dB 7:24 12-I Got My Brand On You
DR8 -0.10 dB -11.56 dB 10:59 13-Medley
--------------------------------------------------------------------------------
Number of tracks: 13
Official DR value: DR9
Samplerate: 44100 Hz
Channels: 2
Bits per sample: 16
Bitrate: 596 kbps
Codec: FLAC
================================================================================

Об альбоме (сборнике)

Digibook
Made in the EU
"Taste" Originally released as Polydor 583 042 in April 1969
"On The Boards" Originally released as Polydor 583 083 in January 1970
"Live In Konserthuset" Recorded live in Konserthuset, Stockholm, Sweden, 1970
"BBC Live In Concert" "Off Air" Recording of Taste live at The Paris Theatre, London, 1970
"Live At Woburn Abbey" Recorded live at Woburn Abbey Festival, UK, 1968

Состав

Alto Saxophone – Rory Gallagher (tracks: 2-3, 2-7, 2-13)
Bass Guitar – Eric Kitteringham (tracks: 4-1 to 4-13), Richard McCracken (tracks: 1-1 to 1-3, 1-5 to 1-15, 2-1 to 2-8, 2-10, 2-11, 2-13 to 3-13)
Compiled By – Daniel Gallagher (2)
Drums – John Wilson (3) (tracks: 1-1 to 1-3, 1-5 to 1-15, 2-1 to 2-8, 2-10, 2-11, 2-13 to 3-13), Norman Damery (tracks: 4-1 to 4-13)
Harmonica – Rory Gallagher (tracks: 2-4, 2-8, 2-14, 4-1, 4-3, 4-4, 4-13)
Lead Guitar – Rory Gallagher
Vocals – Rory Gallagher

To download the file disable ad blocking, and reload the page.

disable adblock How to disable ad blocking?

Download by magnet link 1.3 GB Download Torrent

Login using:

Similar topics

(Blues Rock) Ash Grunwald - Now - 2015, FLAC (image+.cue), lossless
 298 MB   0 | 0   02-May-17 18:51   2


   
Current time is: 18-Oct 21:23 :: All times are UTC ± 0