& The White Flames
________
Reunited

__________
Жанр: Blues Rock
Носитель: WEB
Год издания: 2017
Издатель (лейбл): Snowy White
Страна исполнителя (группы): UK
Аудиокодек: FLAC (*.flac)
Тип рипа: tracks
Битрейт аудио: lossless
Источник (релизер): 7digital
Наличие сканов в содержимом раздачи: нет
Треклист:
1. Have I Got Blues For You
2. Headful Of Blues
3. I've Heard It All Before
4. Where Will You Belong
5. I Know Our Time Ain't Long
6. Rest Full
7. Long Time No C
8. Emptyhanded
9. Nuff Said
10. In California
11. Time To Start Living
________________________
Продолжительность: 58:04

Лог проверки качества

AUDIOCHECKER v2.0 beta (build 457) - by Dester - opdester@freemail.hu
~~~~~~~~~~~~~~~~~~~~~~~~~~~~~~~~~~
-=== НЕ РЕДАКТИРУЙТЕ ЭТОТ ФАЙЛ! ===-
Путь: ...\Snowy White & The White Flames - Reunited (2017) WEB-FLAC
01 -=- 01 - Have I Got Blues For You.flac -=- CDDA (100%)
02 -=- 02 - Headful Of Blues.flac -=- CDDA (100%)
03 -=- 03 - I've Heard It All Before.flac -=- CDDA (100%)
04 -=- 04 - Where Will You Belong.flac -=- CDDA (100%)
05 -=- 05 - I Know Our Time Ain't Long.flac -=- CDDA (100%)
06 -=- 06 - Rest Full.flac -=- CDDA (100%)
07 -=- 07 - Long Time No C.flac -=- CDDA (100%)
08 -=- 08 - Emptyhanded.flac -=- CDDA (100%)
09 -=- 09 - Nuff Said.flac -=- CDDA (100%)
10 -=- 10 - In California.flac -=- CDDA (100%)
11 -=- 11 - Time To Start Living.flac -=- CDDA (100%)
Сводка 100,00% CDDA
56331364

Динамический диапазон [11]

foobar2000 1.2.9 / Dynamic Range Meter 1.1.1
log date: 2017-10-07 01:05:35
--------------------------------------------------------------------------------
Analyzed: Snowy White & The White Flames / Reunited
--------------------------------------------------------------------------------
DR Peak RMS Duration Track
--------------------------------------------------------------------------------
DR11 -0.30 dB -12.99 dB 5:02 01-Have I Got Blues For You
DR10 -0.30 dB -11.74 dB 6:36 02-Headful Of Blues
DR9 -0.30 dB -10.31 dB 4:22 03-I've Heard It All Before
DR10 -0.30 dB -13.40 dB 4:49 04-Where Will You Belong
DR12 -0.30 dB -14.18 dB 4:36 05-I Know Our Time Ain't Long
DR13 -0.30 dB -15.10 dB 3:46 06-Rest Full
DR11 -0.30 dB -12.48 dB 3:51 07-Long Time No C
DR13 -0.30 dB -15.75 dB 4:28 08-Emptyhanded
DR9 -0.30 dB -10.95 dB 3:39 09-Nuff Said
DR13 -0.30 dB -14.28 dB 5:25 10-In California
DR9 -0.30 dB -10.96 dB 11:38 11-Time To Start Living
--------------------------------------------------------------------------------
Number of tracks: 11
Official DR value: DR11
Samplerate: 44100 Hz
Channels: 2
Bits per sample: 16
Bitrate: 815 kbps
Codec: FLAC
================================================================================

Об исполнителе (группе)

http://snowywhite.com/
https://en.wikipedia.org/wiki/Snowy_White

To download the file disable ad blocking, and reload the page.

disable adblock How to disable ad blocking?

Download by magnet link 335 MB Download Torrent

Login using:

Загрузка...

Similar topics



   
Current time is: 19-Dec 18:32 :: All times are UTC + 3