The Joe Pitts Band - One Night Only Live
Жанр: Blues/Rock
Год выпуска диска: 2008
Аудио кодек: APE
Тип рипа: image+.cue
Битрейт аудио: lossless
Продолжительность: 1:01:23

треклист

01. Blue Light Rain [0:06:46.98]
02. Blackout [0:07:56.20]
03. Outskirts Of Town [0:07:50.45]
04. Step Into The Dark [0:08:17.84]
05. Tales Of Brave Ulysses [0:03:57.26]
06. Just A Matter Of Time [0:04:09.04]
07. Lonesome Boy From Yesterday [0:04:38.61]
08. Zambified [0:05:00.62]
09. Mr Big [0:06:00.93]
10. VT Inst #6 Jam [0:06:45.46]

EAC

Exact Audio Copy V0.99 prebeta 4 from 23. January 2008
Отчёт EAC об извлечении, выполненном 31. декабря 2009, 21:31
The Joe Pitts Band / One Night Only Live
Дисковод: PLEXTOR DVDR PX-820A Adapter: 3 ID: 1
Режим чтения : Достоверность
Использование точного потока : Да
Отключение кэша аудио : Да
Использование указателей C2 : Нет
Коррекция смещения при чтении : 48
Способность читать области Lead-in и Lead-out : Нет
Заполнение пропущенных сэмплов тишиной : Да
Удаление блоков с тишиной в начале и конце : Нет
При вычислениях CRC использовались нулевые сэмплы : Да
Интерфейс : Встроенный Win32-интерфейс для Win NT/2000
Выходной формат : Внутренние WAV-операции
Формат сэмплов : 44.100 Гц; 16 бит; стерео
TOC извлечённого CD
Трек | Старт | Длительность | Начальный сектор | Конечный сектор
---------------------------------------------------------------------
1 | 0:00.00 | 6:46.74 | 0 | 30523
2 | 6:46.74 | 7:56.15 | 30524 | 66238
3 | 14:43.14 | 7:50.34 | 66239 | 101522
4 | 22:33.48 | 8:17.63 | 101523 | 138860
5 | 30:51.36 | 3:57.20 | 138861 | 156655
6 | 34:48.56 | 4:09.03 | 156656 | 175333
7 | 38:57.59 | 4:38.46 | 175334 | 196229
8 | 43:36.30 | 5:00.47 | 196230 | 218776
9 | 48:37.02 | 6:00.70 | 218777 | 245846
10 | 54:37.72 | 6:45.35 | 245847 | 276256
Характеристики диапазона извлечения и сообщения об ошибках
Выбранный диапазон
Имя файла D:\В ПАМЯТЬ\JOE PITTS BAND\The Joe Pitts Band - One Night Only Live.wav
Пиковый уровень 99.8 %
Качество диапазона 100.0 %
CRC копии 0D48730B
Копирование... OK
Ошибок не произошло
AccurateRip: сводка
Трек 1 точное извлечение (доверие 1) [546F5589]
Трек 2 точное извлечение (доверие 1) [8600AE1F]
Трек 3 точное извлечение (доверие 1) [258F3A21]
Трек 4 точное извлечение (доверие 1) [4DD86590]
Трек 5 точное извлечение (доверие 1) [55342A8A]
Трек 6 точное извлечение (доверие 1) [C0BDF6D2]
Трек 7 точное извлечение (доверие 1) [A63372BA]
Трек 8 точное извлечение (доверие 1) [DD717830]
Трек 9 точное извлечение (доверие 1) [34201DDB]
Трек 10 точное извлечение (доверие 1) [39082D12]
Все треки извлечены точно
Конец отчёта
Рип свой
С наступающим новым 2010 годом

To download the file disable ad blocking, and reload the page.

disable adblock How to disable ad blocking?

Download by magnet link 378 MB Download Torrent

Login using:

Similar topics



   
Current time is: 18-Oct 20:50 :: All times are UTC ± 0