The Allman Brothers Band - Dreams
Жанр: Blues, Blues-Rock, Album Rock
Год выпуска диска: 1989
Производитель диска: USA (Polydor)
Аудио кодек: FLAC
Тип рипа: tracks+.cue
Битрейт аудио: lossless
Продолжительность: 4:59:09
-

Disc 1 треклист

01. Shapes of Things / The Allman Joys
02. Spoonful / The Allman Joys
03. Crossroads / The Allman Joys
04. Cast off All My Fears / Hour Glass
05. Down in Texas / Hour Glass
06. Ain't No Good to Cry / Hour Glass
07. B.B. King Medley / Hour Glass
08. Morning Dew / The 31st Of Febuary
09. God Rest His Soul / The 31st Of Febuary
10. I Feel Free / The Second Coming
11. She Has Funny Cars / The Second Coming
12. Goin' Down Slow / Duane Allman
13. Dreams / The Allman Brothers Band
14. Don't Want You No More / The Allman Brothers Band
15. It's Not My Cross to Bear / The Allman Brothers Band
16. Trouble No More / The Allman Brothers Band
17. Dreams / The Allman Brothers Band

Disc 2 (All Allman Brothers Band) треклист

01. Statesboro Blues
02. (I'm Your) Hoochie Coochie Man
03. Midnight Rider
04. Dimples [Live]
05. I'm Gonna Move to the Outskirts of Town [Live]
06. Revival
07. One More Ride
08. Whipping Post [Live]
09. In Memory of Elizabeth Reed [Live]
10. Drunken Hearted Boy [Live]

Disc 3 (All Allman Brothers Band except where noted) треклист

01. You Don't Love Me/Soul Serenade [Live]
02. Blue Sky
03. Little Martha
04. Melissa
05. Ain't Wastin' Time No More [Live]
06. Wasted Words
07. Ramblin' Man
08. Southbound
09. Jessica
10. Midnight Rider / Gregg Allman
11. One Way Out [Live]
12. Long Time Gone / Dickey Betts

Disc 4 треклист

01. Can't Lose What You Never Had / The Allman Brothers Band
02. Come and Go Blues - The Gregg Allman Band
03. Bougainvillea - Dickey Betts & Great Southern
04. Can You Fool / Allman and Woman (Cher)
05. Good Time Feeling / Dickey Betts & Great Southern
06. Crazy Love / The Allman Brothers Band
07. Can't Take It With You / The Allman Brothers Band
08. Just Ain't Easy / The Allman Brothers Band
09. In Memory of Elizabeth Reed / The Allman Brothers Band
10. Angeline / The Allman Brothers Band
11. Things You Used to Do / The Allman Brothers Band
12. Nancy / Dickey Betts
13. Rain / Gregg Allman
14. I'm No Angel / The Gregg Allman Band
15. Demons / The Gregg Allman Band
16. Duane's Tune / The Dickey Betts Band
-Сканы внутри

Персоны

Matt Abts Drums
Steve Alaimo Producer
Allman and Woman Performer
The Allman Brothers Band Producer, Performer
Allman Joys Performer
Duane Allman Guitar (Acoustic), Dobro, Guitar, Vocals, Slide Guitar, Performer
Gregg Allman Band Performer
Gregg Allman Organ, Guitar (Acoustic), Guitar, Piano, Guitar (Rhythm), Organ (Hammond), Piano (Electric), Vocals, Producer, Performer
Adrian Barber Producer
Michael Bays Art Direction
Steve Beckmeier Guitar
Dickey Betts & Great Southern Performer
Dickey Betts Band Producer
Dickey Betts Guitar (Acoustic), Dobro, Guitar, Guitar (Electric), Vocals, Producer, Slide Guitar, Performer
Elvin Bishop Guitar, Vocals
Scott Boyer Guitar (Acoustic), Guitar, Vocals
Bonnie Bramlett Vocals
Tom Broome Keyboards
David Brown Bass
Greg Calbi Mastering
Jesse Willard Carr Bass, Vocals
Pete Carr Bass
Cher Vocals
Johnny Cobb Piano, Keyboards, Producer
Nick DeCaro Conductor, String Arrangements
Thom Doucette Harmonica
Tom Dowd Producer
Dennis Drake Engineer, Digital Compilation
Les Dudek Guitar (Acoustic), Guitar
Timothy Eaton Producer
Jim Essery Harmonica
Alan Facemire Producer
Ed Freeman Arranger, Conductor, Horn Arrangements, String Arrangements
David Goldflies Bass
Great Southern Performer
Bobbye Hall Percussion
Rick Hall Producer
Hilda Harris Vocals
Warren Haynes Guitar
Tim Heding Keyboards
Ricky Hirsch Guitar
Paul Hornsby Organ, Guitar, Piano, Keyboards, Vocals
The Hour Glass Performer
John Leslie Hug Guitar
John Hughey Guitar (Steel)
Don Johnson Vocals
Jaimoe Johnson Conga, Drums
Bob Keller Bass, Harmonica, Vocals
Michael Klotz Design
Neil Larsen Keyboards
Mike Lawler Keyboards, Piano (Electric), Producer
Chuck Leavell Piano, Piano (Electric), Vocals
Bill Levenson Liner Notes, Compilation
David Luell Horn
Bonnie MacLean Photography
Steve Madaio Horn
Jon Mathias Producer
Charles May Ensemble Choir, Chorus
Charles May Choir, Chorus
Jerry McCoy Bass
John Meeks Drums
Helene Miles Vocals
Stephen Miller Piano
Steve Miller Piano
Rodney Mills Producer
Chips Moman Producer
Johnny Neel Keyboards
Berry Oakley Bass, Vocals
William Perkins Executive Producer
Maynard Portwood Drums
Marty Privette Bass
Buck Rambo Vocals
Dottie Rambo Vocals
Reba Rambo Vocals
The Rambos Vocals
Mickey Raphael Harmonica
Jack Richardson Producer
Pat Rizzo Horn
John Ryan Producer
Johnny Sandlin Bass, Percussion, Drums, Producer
Second Coming Performer
Donnie Sharbono Percussion, Drums
David Singer Photography
Dallas Smith Producer
Bill Stewart Drums
Maretha Stewart Vocals
Stray Straton Vocals
John Swenson Liner Notes, Essay
Fred Tackett Guitar
Tommy Talton Guitar (Acoustic)
Don Tanner Producer
The 31st Of February
Jerry Thompson Percussion, Drums
Ken Tibbets Bass
Russ Titelman Producer
Dan Toler Guitar (Acoustic), Guitar
David Frankie Toler Percussion, Drums
David Toler Percussion, Drums
Chaz Trippy Percussion
Butch Trucks Percussion, Drums, Tambourine, Tympani [Timpani]
Bruce Waibel Bass
David Walshaw Percussion, Drums
Lenny Waronker Producer
Willie Weeks Bass
Harry Weinger Editorial Assistant
Kirk West Associate Producer
Lamar Williams Bass
Michael Workman Keyboards
Reese Wynans Organ

LOG CD1

EAC extraction logfile from 15. November 2004, 3:34 for CD
The Allman Brothers Band / Dreams (Disc 1)
Used drive : HL-DT-STCD-RW GCE-8520B Adapter: 1 ID: 0
Read mode : Secure with NO C2, accurate stream, disable cache
Read offset correction : 6
Overread into Lead-In and Lead-Out : No
Used output format : Internal WAV Routines
44.100 Hz; 16 Bit; Stereo
Other options :
Fill up missing offset samples with silence : Yes
Delete leading and trailing silent blocks : No
Installed external ASPI interface
Track 1
Filename C:\01 Shapes Of Things.wav
Pre-gap length 0:00:02.32
Peak level 87.0 %
Track quality 99.9 %
Test CRC 683F7008
Copy CRC 683F7008
Copy OK
Track 2
Filename C:\02 Spoonful.wav
Pre-gap length 0:00:01.63
Peak level 78.3 %
Track quality 99.8 %
Test CRC 33A88721
Copy CRC 33A88721
Copy OK
Track 3
Filename C:\03 Crossroads.wav
Pre-gap length 0:00:01.63
Peak level 77.0 %
Track quality 99.9 %
Test CRC 86913694
Copy CRC 86913694
Copy OK
Track 4
Filename C:\04 Cast Off All My Fears.wav
Pre-gap length 0:00:03.05
Peak level 75.6 %
Track quality 99.9 %
Test CRC 28C98AF4
Copy CRC 28C98AF4
Copy OK
Track 5
Filename C:\05 Down In Texas.wav
Pre-gap length 0:00:02.05
Peak level 76.8 %
Track quality 100.0 %
Test CRC 97CB28C8
Copy CRC 97CB28C8
Copy OK
Track 6
Filename C:\06 Ain't No Good To Cry.wav
Pre-gap length 0:00:02.00
Peak level 88.9 %
Track quality 99.9 %
Test CRC 1740D131
Copy CRC 1740D131
Copy OK
Track 7
Filename C:\07 BB King Medley.wav
Pre-gap length 0:00:01.07
Peak level 87.1 %
Track quality 100.0 %
Test CRC 4478BD15
Copy CRC 4478BD15
Copy OK
Track 8
Filename C:\08 Morning Dew.wav
Pre-gap length 0:00:02.25
Peak level 93.2 %
Track quality 100.0 %
Test CRC 3D0A52AE
Copy CRC 3D0A52AE
Copy OK
Track 9
Filename C:\09 God Rest His Soul.wav
Pre-gap length 0:00:01.63
Peak level 74.6 %
Track quality 100.0 %
Test CRC 59002476
Copy CRC 59002476
Copy OK
Track 10
Filename C:\10 I Feel Free.wav
Pre-gap length 0:00:01.32
Peak level 57.2 %
Track quality 100.0 %
Test CRC DA9E0EF5
Copy CRC DA9E0EF5
Copy OK
Track 11
Filename C:\11 She Has Funny Cars.wav
Pre-gap length 0:00:01.63
Peak level 77.9 %
Track quality 100.0 %
Test CRC 7F40E344
Copy CRC 7F40E344
Copy OK
Track 12
Filename C:\12 Goin' Down Slow.wav
Pre-gap length 0:00:02.14
Peak level 87.5 %
Track quality 100.0 %
Test CRC 880E6049
Copy CRC 880E6049
Copy OK
Track 13
Filename C:\13 Dreams.wav
Pre-gap length 0:00:02.62
Peak level 78.7 %
Track quality 100.0 %
Test CRC 002E78F3
Copy CRC 002E78F3
Copy OK
Track 14
Filename C:\14 Don't Want You No More.wav
Pre-gap length 0:00:02.63
Peak level 92.8 %
Track quality 100.0 %
Test CRC 08D61485
Copy CRC 08D61485
Copy OK
Track 15
Filename C:\15 It's Not My Cross To Bear.wav
Peak level 95.8 %
Track quality 100.0 %
Test CRC EAF07A10
Copy CRC EAF07A10
Copy OK
Track 16
Filename C:\16 Trouble No More.wav
Pre-gap length 0:00:01.63
Peak level 96.8 %
Track quality 100.0 %
Test CRC 7A4C8CB6
Copy CRC 7A4C8CB6
Copy OK
Track 17
Filename C:\17 Dreams.wav
Pre-gap length 0:00:01.62
Peak level 100.0 %
Track quality 100.0 %
Test CRC 5A24E714
Copy CRC 5A24E714
Copy OK
No errors occured
End of status report

LOG CD2

EAC extraction logfile from 15. November 2004, 4:11 for CD
The Allman Brothers Band / Dreams (Disc 2)
Used drive : HL-DT-STCD-RW GCE-8520B Adapter: 1 ID: 0
Read mode : Secure with NO C2, accurate stream, disable cache
Read offset correction : 6
Overread into Lead-In and Lead-Out : No
Used output format : Internal WAV Routines
44.100 Hz; 16 Bit; Stereo
Other options :
Fill up missing offset samples with silence : Yes
Delete leading and trailing silent blocks : No
Installed external ASPI interface
Track 1
Filename C:\01 Statesboro Blues.wav
Pre-gap length 0:00:02.32
Peak level 100.0 %
Track quality 100.0 %
Test CRC FB60797E
Copy CRC FB60797E
Copy OK
Track 2
Filename C:\02 Hoochie Coochie Man.wav
Pre-gap length 0:00:01.30
Peak level 91.6 %
Track quality 100.0 %
Test CRC 400A2475
Copy CRC 400A2475
Copy OK
Track 3
Filename C:\03 Midnight Rider.wav
Pre-gap length 0:00:02.05
Peak level 93.3 %
Track quality 100.0 %
Test CRC D59FBA85
Copy CRC D59FBA85
Copy OK
Track 4
Filename C:\04 Dimples.wav
Pre-gap length 0:00:01.35
Peak level 78.2 %
Track quality 99.9 %
Test CRC 209B9217
Copy CRC 209B9217
Copy OK
Track 5
Filename C:\05 I'm Gonna Move To The Outskirts Of Town.wav
Pre-gap length 0:00:01.70
Peak level 99.7 %
Track quality 100.0 %
Test CRC BA44B468
Copy CRC BA44B468
Copy OK
Track 6
Filename C:\06 Revival.wav
Pre-gap length 0:00:01.68
Peak level 83.9 %
Track quality 99.9 %
Test CRC 11E022F9
Copy CRC 11E022F9
Copy OK
Track 7
Filename C:\07 One More Ride.wav
Pre-gap length 0:00:01.32
Peak level 97.2 %
Track quality 100.0 %
Test CRC FE371941
Copy CRC FE371941
Copy OK
Track 8
Filename C:\08 Whipping Post.wav
Pre-gap length 0:00:01.55
Peak level 88.4 %
Track quality 99.9 %
Test CRC 9BEBC530
Copy CRC 9BEBC530
Copy OK
Track 9
Filename C:\09 In Memory Of Elizabeth Reed.wav
Pre-gap length 0:00:00.63
Peak level 85.0 %
Track quality 100.0 %
Test CRC B97E3EC3
Copy CRC B97E3EC3
Copy OK
Track 10
Filename C:\10 Drunken Hearted Boy.wav
Pre-gap length 0:00:01.60
Peak level 89.0 %
Track quality 100.0 %
Test CRC 93316F22
Copy CRC 93316F22
Copy OK
No errors occured
End of status report

LOG CD3

EAC extraction logfile from 15. November 2004, 5:11 for CD
The Allman Brothers Band / Dreams (Disc 3)
Used drive : HL-DT-STCD-RW GCE-8520B Adapter: 1 ID: 0
Read mode : Secure with NO C2, accurate stream, disable cache
Read offset correction : 6
Overread into Lead-In and Lead-Out : No
Used output format : Internal WAV Routines
44.100 Hz; 16 Bit; Stereo
Other options :
Fill up missing offset samples with silence : Yes
Delete leading and trailing silent blocks : No
Installed external ASPI interface
Track 1
Filename C:\01 You Don't Love Me - Soul Serenade.wav
Pre-gap length 0:00:02.32
Peak level 100.0 %
Track quality 100.0 %
Test CRC 7E6E2F88
Copy CRC 7E6E2F88
Copy OK
Track 2
Filename C:\02 Blue Sky.wav
Pre-gap length 0:00:02.73
Peak level 98.0 %
Track quality 100.0 %
Test CRC F2EE1BA7
Copy CRC F2EE1BA7
Copy OK
Track 3
Filename C:\03 Little Martha.wav
Pre-gap length 0:00:01.60
Peak level 54.1 %
Track quality 99.9 %
Test CRC 615FD24B
Copy CRC 615FD24B
Copy OK
Track 4
Filename C:\04 Melissa.wav
Pre-gap length 0:00:02.62
Peak level 78.6 %
Track quality 99.9 %
Test CRC 78F448FE
Copy CRC 78F448FE
Copy OK
Track 5
Filename C:\05 Ain't Wastin' Time No More.wav
Pre-gap length 0:00:02.62
Peak level 83.9 %
Track quality 100.0 %
Test CRC 55BD284E
Copy CRC 55BD284E
Copy OK
Track 6
Filename C:\06 Wasted Words.wav
Pre-gap length 0:00:02.22
Peak level 97.6 %
Track quality 99.9 %
Test CRC ED4A2206
Copy CRC ED4A2206
Copy OK
Track 7
Filename C:\07 Ramblin' Man.wav
Pre-gap length 0:00:02.62
Peak level 96.5 %
Track quality 100.0 %
Test CRC D129D3D1
Copy CRC D129D3D1
Copy OK
Track 8
Filename C:\08 Southbound.wav
Pre-gap length 0:00:01.50
Peak level 100.0 %
Track quality 100.0 %
Test CRC 3CFFE986
Copy CRC 3CFFE986
Copy OK
Track 9
Filename C:\09 Jessica.wav
Pre-gap length 0:00:01.62
Peak level 99.4 %
Track quality 99.9 %
Test CRC 8F2BACAF
Copy CRC 8F2BACAF
Copy OK
Track 10
Filename C:\10 Midnight Rider.wav
Pre-gap length 0:00:02.62
Peak level 90.6 %
Track quality 100.0 %
Test CRC BFE0A092
Copy CRC BFE0A092
Copy OK
Track 11
Filename C:\11 One Way Out.wav
Pre-gap length 0:00:02.63
Peak level 99.8 %
Track quality 99.9 %
Test CRC 94273142
Copy CRC 94273142
Copy OK
Track 12
Filename C:\12 Long Time Gone.wav
Pre-gap length 0:00:01.63
Peak level 82.6 %
Track quality 100.0 %
Test CRC B1798064
Copy CRC B1798064
Copy OK
No errors occured
End of status report

LOG CD4

EAC extraction logfile from 15. November 2004, 5:34 for CD
The Allman Brothers Band / Dreams (Disc 4)
Used drive : HL-DT-STCD-RW GCE-8520B Adapter: 1 ID: 0
Read mode : Secure with NO C2, accurate stream, disable cache
Read offset correction : 6
Overread into Lead-In and Lead-Out : No
Used output format : Internal WAV Routines
44.100 Hz; 16 Bit; Stereo
Other options :
Fill up missing offset samples with silence : Yes
Delete leading and trailing silent blocks : No
Installed external ASPI interface
Track 1
Filename C:\01 Can't Lose What You Never Had.wav
Pre-gap length 0:00:02.32
Peak level 83.5 %
Track quality 100.0 %
Test CRC 027B83BE
Copy CRC 027B83BE
Copy OK
Track 2
Filename C:\02 Come And Go Blues.wav
Pre-gap length 0:00:02.38
Peak level 100.0 %
Track quality 100.0 %
Test CRC 9213950C
Copy CRC 9213950C
Copy OK
Track 3
Filename C:\03 Bougainvillea.wav
Pre-gap length 0:00:02.25
Peak level 100.0 %
Track quality 100.0 %
Test CRC 224CB916
Copy CRC 224CB916
Copy OK
Track 4
Filename C:\04 Can You Fool.wav
Pre-gap length 0:00:02.63
Peak level 77.3 %
Track quality 100.0 %
Test CRC 6D04BBDA
Copy CRC 6D04BBDA
Copy OK
Track 5
Filename C:\05 Good Time Feeling.wav
Pre-gap length 0:00:02.25
Peak level 97.7 %
Track quality 100.0 %
Test CRC 5DB4462A
Copy CRC 5DB4462A
Copy OK
Track 6
Filename C:\06 Crazy Love.wav
Pre-gap length 0:00:01.63
Peak level 98.9 %
Track quality 100.0 %
Test CRC B2240DFD
Copy CRC B2240DFD
Copy OK
Track 7
Filename C:\07 Can't Take It With You.wav
Pre-gap length 0:00:00.62
Peak level 92.6 %
Track quality 99.9 %
Test CRC 5B2D7B09
Copy CRC 5B2D7B09
Copy OK
Track 8
Filename C:\08 Just Ain't Easy.wav
Pre-gap length 0:00:02.25
Peak level 99.2 %
Track quality 100.0 %
Test CRC 7E58ABAE
Copy CRC 7E58ABAE
Copy OK
Track 9
Filename C:\09 In Memory Of Elizabeth Reed.wav
Peak level 100.0 %
Track quality 100.0 %
Test CRC 65CE175E
Copy CRC 65CE175E
Copy OK
Track 10
Filename C:\10 Angeline.wav
Pre-gap length 0:00:02.25
Peak level 100.0 %
Track quality 100.0 %
Test CRC 09D69B10
Copy CRC 09D69B10
Copy OK
Track 11
Filename C:\11 Things You Used To Do.wav
Pre-gap length 0:00:02.40
Peak level 82.1 %
Track quality 100.0 %
Test CRC 0A0AA053
Copy CRC 0A0AA053
Copy OK
Track 12
Filename C:\12 Nancy.wav
Pre-gap length 0:00:02.62
Peak level 93.8 %
Track quality 100.0 %
Test CRC BE03189E
Copy CRC BE03189E
Copy OK
Track 13
Filename C:\13 Rain.wav
Pre-gap length 0:00:02.25
Peak level 79.8 %
Track quality 100.0 %
Test CRC 811C2860
Copy CRC 811C2860
Copy OK
Track 14
Filename C:\14 I'm No Angel.wav
Pre-gap length 0:00:02.25
Peak level 87.5 %
Track quality 100.0 %
Test CRC 0421D7D5
Copy CRC 0421D7D5
Copy OK
Track 15
Filename C:\15 Demons.wav
Pre-gap length 0:00:01.65
Peak level 100.0 %
Track quality 100.0 %
Test CRC DE7EB033
Copy CRC DE7EB033
Copy OK
Track 16
Filename C:\16 Duane's Tune.wav
Pre-gap length 0:00:02.25
Peak level 96.3 %
Track quality 100.0 %
Test CRC E47E1DA8
Copy CRC E47E1DA8
Copy OK
No errors occured
End of status report

To download the file disable ad blocking, and reload the page.

disable adblock How to disable ad blocking?

Download by magnet link 1.78 GB Download Torrent

Login using:

Загрузка...

Similar topics



   
Current time is: 15-Dec 16:17 :: All times are UTC + 3