-ДИСКОГРАФИЯ-
Жанр: Progressive, Power Metal
Носитель: CD
Страна-производитель диска: Germany, Japan, Russia, Italy
Год издания: 1996-2017
Издатель (лейбл): Elevate Rec., Scarlet Rec., Avalon, Sun Brain
Страна: Italy
Аудиокодек: FLAC (*.flac)
Тип рипа: image+.cue
Битрейт аудио: lossless
Источник (релизер): Ilijan, spiralarch, phiv, DegradingLight, KorrOZZYya
Наличие сканов в содержимом раздачи: да-

1996 - Random Access Zone [Self-released, DGM 0100, Germany]

01. Hard Race (5:45)
02. Run (4:29)
03. Data Error (6:07)
04. Melpomenia (6:44)

Лог создания рипа

Exact Audio Copy V1.0 beta 1 from 15. November 2010
EAC extraction logfile from 26. December 2012, 21:46
DGM / Random Access Zone
Used drive : Optiarc DVD RW AD-7240S Adapter: 2 ID: 0
Read mode : Secure
Utilize accurate stream : Yes
Defeat audio cache : Yes
Make use of C2 pointers : No
Read offset correction : 48
Overread into Lead-In and Lead-Out : No
Fill up missing offset samples with silence : Yes
Delete leading and trailing silent blocks : No
Null samples used in CRC calculations : Yes
Used interface : Native Win32 interface for Win NT & 2000
Used output format : Internal WAV Routines
Sample format : 44.100 Hz; 16 Bit; Stereo
TOC of the extracted CD
Track | Start | Length | Start sector | End sector
---------------------------------------------------------
1 | 0:00.00 | 5:45.27 | 0 | 25901
2 | 5:45.27 | 4:28.55 | 25902 | 46056
3 | 10:14.07 | 6:07.15 | 46057 | 73596
4 | 16:21.22 | 6:44.16 | 73597 | 103912
Range status and errors
Selected range
Filename D:\spiralarch\DGM - Random Access Zone.wav
Peak level 94.4 %
Extraction speed 0.9 X
Range quality 100.0 %
Copy CRC 59B805AD
Copy OK
No errors occurred
AccurateRip summary
Track 1 accurately ripped (confidence 1) [A5617C99]
Track 2 accurately ripped (confidence 1) [8585EFF2]
Track 3 accurately ripped (confidence 1) [3AD8C351]
Track 4 accurately ripped (confidence 1) [9B7D32F0]
All tracks accurately ripped
End of status report
==== Log checksum 187E4FC60BCBF1A289901A881BAB0410A0037F55BFB0AF6E093CFFC31E3DEA22 ====

1997 - Change Direction [Elevate Rec., ERO 2003, Germany]

01. Brainstorming (5:03)
02. In My Heart (4:35)
03. The Last Memory (7:33)
04. Lonely Nights (7:05)
05. Anthem (8:48)
06. Do What You Want! (4:52)
07. Change Direction (6:47)
08. Flyin' Fantasy (5:06)

Лог создания рипа

Exact Audio Copy V1.0 beta 1 from 15. November 2010
EAC extraction logfile from 24. November 2011, 14:18
DGM / Change Direction
Used drive : Optiarc DVD RW AD-7240S Adapter: 2 ID: 0
Read mode : Secure
Utilize accurate stream : Yes
Defeat audio cache : Yes
Make use of C2 pointers : No
Read offset correction : 48
Overread into Lead-In and Lead-Out : No
Fill up missing offset samples with silence : Yes
Delete leading and trailing silent blocks : No
Null samples used in CRC calculations : Yes
Used interface : Native Win32 interface for Win NT & 2000
Used output format : Internal WAV Routines
Sample format : 44.100 Hz; 16 Bit; Stereo
TOC of the extracted CD
Track | Start | Length | Start sector | End sector
---------------------------------------------------------
1 | 0:00.00 | 5:02.41 | 0 | 22690
2 | 5:02.41 | 4:35.17 | 22691 | 43332
3 | 9:37.58 | 7:32.68 | 43333 | 77300
4 | 17:10.51 | 7:04.48 | 77301 | 109148
5 | 24:15.24 | 8:48.19 | 109149 | 148767
6 | 33:03.43 | 4:51.53 | 148768 | 170645
7 | 37:55.21 | 6:47.30 | 170646 | 201200
8 | 44:42.51 | 5:06.01 | 201201 | 224151
Range status and errors
Selected range
Filename D:\spiralarch\DGM - Change Direction.wav
Peak level 98.8 %
Extraction speed 0.3 X
Range quality 100.0 %
Copy CRC 005E4E40
Copy OK
No errors occurred
AccurateRip summary
Track 1 accurately ripped (confidence 2) [B0D5DC68]
Track 2 accurately ripped (confidence 2) [05B2F564]
Track 3 accurately ripped (confidence 2) [27DD63F7]
Track 4 accurately ripped (confidence 2) [28EDAC54]
Track 5 accurately ripped (confidence 2) [C3E42313]
Track 6 accurately ripped (confidence 2) [B4F03592]
Track 7 accurately ripped (confidence 2) [03A0E9FB]
Track 8 accurately ripped (confidence 2) [9E6C9E8D]
All tracks accurately ripped
End of status report
==== Log checksum 1C19863136401940BA10C60563D157DA5936C3DB4AB79F63DC95604C174585A2 ====

1999 - Wings Of Time [Sun Brain, SCCD-9, Japan]

01. Guiding Light (5:37)
02. I'll Dream Of You (5:00)
03. Mirrors Of The Night (6:47)
04. Deep Inside (5:07)
05. The Other Side (6:07)
06. Watching For The Sunrise (5:18)
07. A Drop Of Shadow (7:05)
08. Nightmare (6:31)
09. Silence (4:21)
10. Fool For Your Loving (4:17)

Лог создания рипа

Exact Audio Copy V0.99 prebeta 4 from 23. January 2008
EAC extraction logfile from 21. September 2011, 20:20
DGM / Wings Of Time
Used drive : ATAPI iHAP122 9 Adapter: 3 ID: 0
Read mode : Secure
Utilize accurate stream : Yes
Defeat audio cache : Yes
Make use of C2 pointers : No
Read offset correction : 6
Overread into Lead-In and Lead-Out : No
Fill up missing offset samples with silence : Yes
Delete leading and trailing silent blocks : No
Null samples used in CRC calculations : Yes
Used interface : Installed external ASPI interface
Used output format : User Defined Encoder
Selected bitrate : 40 kBit/s
Quality : High
Add ID3 tag : No
Command line compressor : C:\Program Files\Exact Audio Copy\flac.exe
Additional command line options : -6 -V %s
TOC of the extracted CD
Track | Start | Length | Start sector | End sector
---------------------------------------------------------
1 | 0:00.00 | 5:36.45 | 0 | 25244
2 | 5:36.45 | 4:59.60 | 25245 | 47729
3 | 10:36.30 | 6:47.20 | 47730 | 78274
4 | 17:23.50 | 5:06.45 | 78275 | 101269
5 | 22:30.20 | 6:06.60 | 101270 | 128779
6 | 28:37.05 | 5:18.25 | 128780 | 152654
7 | 33:55.30 | 7:04.70 | 152655 | 184524
8 | 41:00.25 | 6:30.52 | 184525 | 213826
9 | 47:31.02 | 4:20.43 | 213827 | 233369
10 | 51:51.45 | 4:17.35 | 233370 | 252679
Range status and errors
Selected range
Filename D:\Download\DGM - Wings Of Time.wav
Peak level 100.0 %
Range quality 100.0 %
Copy CRC 47E39E8A
Copy OK
No errors occurred
AccurateRip summary
Track 1 cannot be verified as accurate (confidence 1) [9F649999], AccurateRip returned [C8800452]
Track 2 cannot be verified as accurate (confidence 1) [D9063110], AccurateRip returned [4C0D93B8]
Track 3 cannot be verified as accurate (confidence 1) [663A369C], AccurateRip returned [5D67B33F]
Track 4 cannot be verified as accurate (confidence 1) [7D9BC08F], AccurateRip returned [AD3223F6]
Track 5 cannot be verified as accurate (confidence 1) [DE51DE88], AccurateRip returned [9E38F15B]
Track 6 cannot be verified as accurate (confidence 1) [F6E5416F], AccurateRip returned [26F4AF69]
Track 7 cannot be verified as accurate (confidence 1) [FF9188D0], AccurateRip returned [1D3E2A99]
Track 8 cannot be verified as accurate (confidence 1) [EF3314C6], AccurateRip returned [868730E2]
Track 9 cannot be verified as accurate (confidence 1) [3ABF8334], AccurateRip returned [D5E56431]
Track 10 cannot be verified as accurate (confidence 1) [1F09454A], AccurateRip returned [BE388F18]
No tracks could be verified as accurate
You may have a different pressing from the one(s) in the database
End of status report

2001 - Dreamland [Avalon, MICP-10268, Japan]

01. Dreamland (7:03)
02. Eternity (7:14)
03. Lost In Time (7:07)
04. The Rain Falls In The Desert (5:23)
05. Reason To Live (5:38)
06. Ego's Battle (5:09)
07. Lie! (7:23)
08. Sweet Surrender (7:05)
09. Feeling Forever (6:52)
10. You Don't Remember, I'll Never Forget (Japanese Bonus Track) (4:21)

Лог создания рипа

EAC extraction logfile from 25. May 2008, 15:00 for CD
DGM / Dreamland
Used drive : _NEC DVD_RW ND-3550A Adapter: 0 ID: 0
Read mode : Secure with NO C2, accurate stream, disable cache
Read offset correction : 48
Overread into Lead-In and Lead-Out : No
Used output format : C:\Program Files\Exact Audio Copy\flac.exe (User Defined Encoder)
32 kBit/s
Additional command line options : -6 -V -T "artist=%a" -T "title=%t" -T "album=%g" -T "date=%y" -T "tracknumber=%n" -T
"genre=%m" -T "comment=EAC 0.95beta4 / FLAC 1.2.1 q6" %s
Other options :
Fill up missing offset samples with silence : Yes
Delete leading and trailing silent blocks : No
Native Win32 interface for Win NT & 2000
Range status and errors
Selected range
Filename C:\DGM [2001] Dreamland\DGM - Dreamland.wav.wav
Peak level 100.0 %
Range quality 100.0 %
CRC B2EB5486
Copy OK
No errors occured
End of status report

2003 - Hidden Place [CD-Maximum, CDM 0803-1459, Russia]

01. A Day Without The Sun (3:55)
02. Save Me (5:33)
03. Hidden Places (7:50)
04. Invisible Rain (6:07)
05. Storm #351 (5:07)
06. Heaven (6:16)
07. Alone (6:35)
08. Blind!! (5:14)
09. Age Of The Flame (5:01)
10. Winter Breeze (8:18)

Лог создания рипа

Exact Audio Copy V0.99 prebeta 5 from 4. May 2009
EAC extraction logfile from 19. April 2010, 20:26
DGM / Hidden Place
Used drive : RICOH CD-R/RW MP7083A Adapter: 5 ID: 0
Read mode : Secure
Utilize accurate stream : Yes
Defeat audio cache : Yes
Make use of C2 pointers : No
Read offset correction : 97
Overread into Lead-In and Lead-Out : No
Fill up missing offset samples with silence : Yes
Delete leading and trailing silent blocks : No
Null samples used in CRC calculations : Yes
Used interface : Native Win32 interface for Win NT & 2000
Used output format : Internal WAV Routines
Sample format : 44.100 Hz; 16 Bit; Stereo
TOC of the extracted CD
Track | Start | Length | Start sector | End sector
---------------------------------------------------------
1 | 0:00.00 | 3:55.37 | 0 | 17661
2 | 3:55.37 | 5:33.08 | 17662 | 42644
3 | 9:28.45 | 7:49.40 | 42645 | 77859
4 | 17:18.10 | 6:06.55 | 77860 | 105364
5 | 23:24.65 | 5:06.40 | 105365 | 128354
6 | 28:31.30 | 6:16.27 | 128355 | 156581
7 | 34:47.57 | 6:35.00 | 156582 | 186206
8 | 41:22.57 | 5:13.73 | 186207 | 209754
9 | 46:36.55 | 5:01.10 | 209755 | 232339
10 | 51:37.65 | 8:17.47 | 232340 | 269661
Range status and errors
Selected range
Filename D:\E2K\My Releases\DGM - (2003) - Hidden Place\DGM - Hidden Place.wav
Peak level 98.7 %
Range quality 100.0 %
Test CRC 67C1EBC6
Copy CRC 67C1EBC6
Copy OK
No errors occurred
AccurateRip summary
Track 1 cannot be verified as accurate (confidence 5) [15A0452B], AccurateRip returned [08298DB8]
Track 2 cannot be verified as accurate (confidence 5) [8A124660], AccurateRip returned [83A8439D]
Track 3 cannot be verified as accurate (confidence 5) [209666B2], AccurateRip returned [4345D0F9]
Track 4 cannot be verified as accurate (confidence 5) [41CF6CCF], AccurateRip returned [BA40E96F]
Track 5 cannot be verified as accurate (confidence 5) [38414FDC], AccurateRip returned [AC141428]
Track 6 cannot be verified as accurate (confidence 5) [46C92473], AccurateRip returned [1059978C]
Track 7 cannot be verified as accurate (confidence 5) [13456D6F], AccurateRip returned [B71D7670]
Track 8 cannot be verified as accurate (confidence 5) [04BA6E69], AccurateRip returned [C123C7B5]
Track 9 cannot be verified as accurate (confidence 5) [6E5B5A18], AccurateRip returned [E4328F73]
Track 10 cannot be verified as accurate (confidence 5) [32B28159], AccurateRip returned [6DFD804C]
No tracks could be verified as accurate
You may have a different pressing from the one(s) in the database
End of status report

2004 - Misplaced [Scarlet Rec., SC 096-2, Italy]

01. Living On The Edge (5:05)
02. Is Hell Without Love? (5:13)
03. Through My Tears (4:34)
04. Still Believe (5:49)
05. Pride (4:54)
06. Amazing Journey (5:41)
07. A New Day's Coming (5:28)
08. Perennial Quest (4:05)

Лог создания рипа

Exact Audio Copy V0.99 prebeta 4 from 23. January 2008
EAC extraction logfile from 19. December 2009, 15:23
DGM / Misplaced
Used drive : ATAPI DVD A DH20A4P Adapter: 3 ID: 0
Read mode : Secure
Utilize accurate stream : Yes
Defeat audio cache : Yes
Make use of C2 pointers : No
Read offset correction : 6
Overread into Lead-In and Lead-Out : No
Fill up missing offset samples with silence : Yes
Delete leading and trailing silent blocks : No
Null samples used in CRC calculations : Yes
Used interface : Installed external ASPI interface
Used output format : Monkey's Audio Lossless Encoder
Selected bitrate : High Lossless Compression
Quality : High
Add ID3 tag : Yes
Command line compressor : C:\Program Files\Monkey's Audio\MAC.exe
TOC of the extracted CD
Track | Start | Length | Start sector | End sector
---------------------------------------------------------
1 | 0:00.00 | 5:05.37 | 0 | 22911
2 | 5:05.37 | 5:12.38 | 22912 | 46349
3 | 10:18.00 | 4:34.22 | 46350 | 66921
4 | 14:52.22 | 5:48.63 | 66922 | 93084
5 | 20:41.10 | 4:54.12 | 93085 | 115146
6 | 25:35.22 | 5:40.63 | 115147 | 140709
7 | 31:16.10 | 5:27.52 | 140710 | 165286
8 | 36:43.62 | 4:04.38 | 165287 | 183624
Range status and errors
Selected range
Filename D:\Download\DGM - Misplaced.wav
Peak level 98.3 %
Range quality 100.0 %
Copy CRC 94C46448
Copy OK
No errors occurred
AccurateRip summary
Track 1 accurately ripped (confidence 1) [13846308]
Track 2 accurately ripped (confidence 1) [7777D422]
Track 3 accurately ripped (confidence 1) [24289767]
Track 4 accurately ripped (confidence 1) [73285300]
Track 5 accurately ripped (confidence 1) [591353FD]
Track 6 accurately ripped (confidence 1) [A03B07FB]
Track 7 accurately ripped (confidence 1) [ABCF33C6]
Track 8 accurately ripped (confidence 1) [E4648B16]
All tracks accurately ripped
End of status report

2007 - Different Shapes [Scarlet Rec., SC 138-2, Italy]

01. New Life (5:04)
02. The Alliance (5:42)
03. Some Day, One Day (4:58)
04. Unkept Promises (5:10)
05. The Fallen Angel (6:32)
06. Peace Of Mind (4:41)
07. Frontiers (4:31)
08. Signs Of Time (5:19)
09. Close To You (4:36)
10. A Man I'll Never Be (5:57)

Лог создания рипа

EAC extraction logfile from 19. March 2008, 14:48 for CD
DGM / Different Shapes
Used drive : LITE-ON DVDRW SHW-16H5S Adapter: 3 ID: 0
Read mode : Secure with NO C2, accurate stream, disable cache
Read offset correction : 6
Overread into Lead-In and Lead-Out : No
Used output format : C:\Program Files\Exact Audio Copy 0.9b4 + APE & FLAC Encoders\MAC.EXE (Monkey's Audio Lossless Encoder)
High Lossless Compression
Other options :
Fill up missing offset samples with silence : Yes
Delete leading and trailing silent blocks : No
Installed external ASPI interface
Range status and errors
Selected range
Filename C:\Documents and Settings\Ilian\My Documents\Downloads\CDImage.wav
Peak level 100.0 %
Range quality 99.9 %
CRC 0D5BFD20
Copy OK
No errors occured
End of status report

2009 - FrAme [Scarlet Rec., SC 172-2, Italy]

01. Hereafter (4:43)
02. Enhancement (4:22)
03. Not In Need (4:22)
04. No Looking Back (5:25)
05. Trapped... (2:01)
06. ...In A Movie (4:03)
07. Away (5:19)
08. Heartache (5:29)
09. Rest In Peace (3:46)
10. Brand New Blood (5:05)
11. Fading & Falling (4:36)

Лог создания рипа

EAC extraction logfile from 26. February 2009, 2:50 for CD
DGM / FrAme
Used drive : ATAPI DVD A DH20A4P Adapter: 3 ID: 0
Read mode : Secure with NO C2, accurate stream, disable cache
Read offset correction : 6
Overread into Lead-In and Lead-Out : No
Used output format : C:\Program Files\Exact Audio Copy\MAC.EXE (Monkey's Audio Lossless Encoder)
High Lossless Compression
Other options :
Fill up missing offset samples with silence : Yes
Delete leading and trailing silent blocks : No
Installed external ASPI interface
Range status and errors
Selected range
Filename D:\Download\CDImage.wav
Peak level 100.0 %
Range quality 99.9 %
CRC 7023E9C2
Copy OK
No errors occured
End of status report

2010 - Synthesis - The Best Of DGM [Scarlet Rec., SC 196-9, Italy]

01. Just Like Before (4:38)
02. The Only One (3:55)
03. A Day Without The Sun (3:54)
04. Living On The Edge (5:02)
05. Dreamland (6:52)
06. Eternity (6:01)
07. Save Me (5:27)
08. Guiding Light (3:59)
09. Through My Tears (4:14)
10. Is Hell Without Love? (5:14)

Лог создания рипа

Exact Audio Copy V0.99 prebeta 4 from 23. January 2008
EAC extraction logfile from 24. November 2010, 17:30
DGM / Synthesis - The Best Of DGM
Used drive : ATAPI DVD A DH20A4P Adapter: 3 ID: 1
Read mode : Secure
Utilize accurate stream : Yes
Defeat audio cache : Yes
Make use of C2 pointers : No
Read offset correction : 6
Overread into Lead-In and Lead-Out : No
Fill up missing offset samples with silence : Yes
Delete leading and trailing silent blocks : No
Null samples used in CRC calculations : Yes
Used interface : Installed external ASPI interface
Used output format : Monkey's Audio Lossless Encoder
Selected bitrate : High Lossless Compression
Quality : High
Add ID3 tag : Yes
Command line compressor : C:\Program Files\Monkey's Audio\MAC.exe
TOC of the extracted CD
Track | Start | Length | Start sector | End sector
---------------------------------------------------------
1 | 0:00.00 | 4:38.31 | 0 | 20880
2 | 4:38.31 | 3:55.16 | 20881 | 38521
3 | 8:33.47 | 3:53.73 | 38522 | 56069
4 | 12:27.45 | 5:01.47 | 56070 | 78691
5 | 17:29.17 | 6:51.45 | 78692 | 109561
6 | 24:20.62 | 6:01.01 | 109562 | 136637
7 | 30:21.63 | 5:26.64 | 136638 | 161151
8 | 35:48.52 | 3:59.22 | 161152 | 179098
9 | 39:47.74 | 4:14.06 | 179099 | 198154
10 | 44:02.05 | 5:13.46 | 198155 | 221675
Range status and errors
Selected range
Filename D:\Download\DGM - Synthesis - The Best Of DGM.wav
Peak level 100.0 %
Range quality 100.0 %
Copy CRC 7DACBDEF
Copy OK
No errors occurred
AccurateRip summary
Track 1 not present in database
Track 2 not present in database
Track 3 not present in database
Track 4 not present in database
Track 5 not present in database
Track 6 not present in database
Track 7 not present in database
Track 8 not present in database
Track 9 not present in database
Track 10 not present in database
None of the tracks are present in the AccurateRip database
End of status report

2013 - Momentum [Avalon, MICP-11087, Japan]

01. Reason (4:55)
02. Trust (5:23)
03. Universe (4:19)
04. Numb (5:02)
05. Pages (4:52)
06. Repay (4:31)
07. Chaos (4:35)
08. Remembrance (5:39)
09. Overload (5:06)
10. Void (6:14)
11. Blame (5:25)
12. Just Like Before (4:38)
13. The Only One (3:55)
14. Reason (Original Version) (4:55)

Лог создания рипа

Exact Audio Copy V1.0 beta 3 from 29. August 2011
EAC extraction logfile from 22. June 2014, 21:52
DGM / Momentum
Used drive : hp DVDRAM GT30L Adapter: 0 ID: 0
Read mode : Secure
Utilize accurate stream : Yes
Defeat audio cache : Yes
Make use of C2 pointers : No
Read offset correction : 103
Overread into Lead-In and Lead-Out : No
Fill up missing offset samples with silence : Yes
Delete leading and trailing silent blocks : No
Null samples used in CRC calculations : Yes
Used interface : Native Win32 interface for Win NT & 2000
Used output format : User Defined Encoder
Selected bitrate : 128 kBit/s
Quality : High
Add ID3 tag : No
Command line compressor : C:\Program Files (x86)\Exact Audio Copy\FLAC\FLAC.EXE
Additional command line options : -V -8 -T "Date=%year%" -T "Genre=%genre%" -T"COMMENT=Ripped by korrOZZYya" -8 -V %source%
TOC of the extracted CD
Track | Start | Length | Start sector | End sector
---------------------------------------------------------
1 | 0:00.00 | 4:54.50 | 0 | 22099
2 | 4:54.50 | 5:22.39 | 22100 | 46288
3 | 10:17.14 | 4:19.01 | 46289 | 65714
4 | 14:36.15 | 5:02.35 | 65715 | 88399
5 | 19:38.50 | 4:52.34 | 88400 | 110333
6 | 24:31.09 | 4:31.07 | 110334 | 130665
7 | 29:02.16 | 4:34.73 | 130666 | 151288
8 | 33:37.14 | 5:39.11 | 151289 | 176724
9 | 39:16.25 | 5:05.52 | 176725 | 199651
10 | 44:22.02 | 6:14.07 | 199652 | 227708
11 | 50:36.09 | 5:24.65 | 227709 | 252073
12 | 56:00.74 | 4:38.32 | 252074 | 272955
13 | 60:39.31 | 3:55.16 | 272956 | 290596
14 | 64:34.47 | 4:54.46 | 290597 | 312692
Range status and errors
Selected range
Filename D:\Music\korrOZZYya\DGM - Momentum (Japanese Edition) - 2013\DGM - Momentum.wav
Peak level 100.0 %
Extraction speed 2.3 X
Range quality 99.9 %
Test CRC 41E79783
Copy CRC 41E79783
Copy OK
No errors occurred
AccurateRip summary
Track 1 accurately ripped (confidence 1) [F3913EF8] (AR v2)
Track 2 accurately ripped (confidence 1) [EE77EB2D] (AR v2)
Track 3 accurately ripped (confidence 1) [0989D119] (AR v2)
Track 4 accurately ripped (confidence 1) [C3A2ADC9] (AR v2)
Track 5 accurately ripped (confidence 1) [918D7919] (AR v2)
Track 6 accurately ripped (confidence 1) [45788B58] (AR v2)
Track 7 accurately ripped (confidence 1) [4474F598] (AR v2)
Track 8 accurately ripped (confidence 1) [352AF6C2] (AR v2)
Track 9 accurately ripped (confidence 1) [867AD979] (AR v2)
Track 10 accurately ripped (confidence 1) [4F16265C] (AR v2)
Track 11 accurately ripped (confidence 1) [350F8E29] (AR v2)
Track 12 accurately ripped (confidence 1) [27FFF591] (AR v2)
Track 13 accurately ripped (confidence 1) [AB78C0B4] (AR v2)
Track 14 accurately ripped (confidence 1) [2A24AB29] (AR v2)
All tracks accurately ripped
End of status report
---- CUETools DB Plugin V2.1.3
[CTDB TOCID: iUkDw7uTuddFghLHSVp2OImjbGs-] found, Submit result: insufficient quality
[96017b3e] (3/3) Differs in 1 samples @28:04:22
You can use CUETools to repair this rip.
==== Log checksum 773AB113BEB104CB62255DF087EE30212328454A0868F7B25571633EFA35D641 ====

2016 - The Passage [Avalon, MICP-11302, Japan]

01. The Secret (Part I) (8:24)
02. The Secret (Part II) (7:16)
03. Animal (5:19)
04. Ghosts Of Insanity (5:35)
05. Fallen (5:40)
06. The Passage (5:11)
07. Disguise (1:54)
08. Portrait (5:39)
09. Daydreamer (5:36)
10. Dogma (5:45)
11. In Sorrow (3:41)
12. Animal (Acoustic Version) (Bonus Track) (4:02)

Лог создания рипа

Exact Audio Copy V1.2 from 12. August 2016
EAC extraction logfile from 22. August 2016, 12:06
DGM / The Passage (Japan)
Used drive : ATAPI iHAS122 W Adapter: 2 ID: 0
Read mode : Secure
Utilize accurate stream : Yes
Defeat audio cache : Yes
Make use of C2 pointers : No
Read offset correction : 48
Overread into Lead-In and Lead-Out : No
Fill up missing offset samples with silence : Yes
Delete leading and trailing silent blocks : No
Null samples used in CRC calculations : Yes
Used interface : Installed external ASPI interface
Used output format : User Defined Encoder
Selected bitrate : 1024 kBit/s
Quality : High
Add ID3 tag : No
Command line compressor : C:\Program Files\FLAC\flac.exe
Additional command line options : -V -8 -T "Date=%year%" -T "Genre=%genre%" -T"COMMENT=Ripped by Ilijan" -8 -V %source%
TOC of the extracted CD
Track | Start | Length | Start sector | End sector
---------------------------------------------------------
1 | 0:00.00 | 8:24.23 | 0 | 37822
2 | 8:24.23 | 7:15.47 | 37823 | 70494
3 | 15:39.70 | 5:18.60 | 70495 | 94404
4 | 20:58.55 | 5:35.24 | 94405 | 119553
5 | 26:34.04 | 5:39.73 | 119554 | 145051
6 | 32:14.02 | 5:10.39 | 145052 | 168340
7 | 37:24.41 | 1:53.54 | 168341 | 176869
8 | 39:18.20 | 5:39.34 | 176870 | 202328
9 | 44:57.54 | 5:35.58 | 202329 | 227511
10 | 50:33.37 | 5:45.07 | 227512 | 253393
11 | 56:18.44 | 3:40.46 | 253394 | 269939
12 | 59:59.15 | 4:02.11 | 269940 | 288100
Range status and errors
Selected range
Filename D:\ilко\DGM - The Passage (Japan).wav
Peak level 100.0 %
Extraction speed 4.3 X
Range quality 100.0 %
Test CRC 4B4DDA67
Copy CRC 4B4DDA67
Copy OK
No errors occurred
AccurateRip summary
Track 1 not present in database
Track 2 not present in database
Track 3 not present in database
Track 4 not present in database
Track 5 not present in database
Track 6 not present in database
Track 7 not present in database
Track 8 not present in database
Track 9 not present in database
Track 10 not present in database
Track 11 not present in database
Track 12 not present in database
None of the tracks are present in the AccurateRip database
End of status report
---- CUETools DB Plugin V2.1.6
[CTDB TOCID: zbcMEB7OC.WvIN4O7LiU9zCUCO4-] found
Submit result: zbcMEB7OC.WvIN4O7LiU9zCUCO4- has been confirmed
Track | CTDB Status
1 | (3/3) Accurately ripped
2 | (3/3) Accurately ripped
3 | (3/3) Accurately ripped
4 | (3/3) Accurately ripped
5 | (3/3) Accurately ripped
6 | (3/3) Accurately ripped
7 | (3/3) Accurately ripped
8 | (3/3) Accurately ripped
9 | (3/3) Accurately ripped
10 | (3/3) Accurately ripped
11 | (3/3) Accurately ripped
12 | (3/3) Accurately ripped
==== Log checksum D70E577A8A7CB4B225DFE1001CCF6467CD0443C7A81638C2B020D06CF331A24E ====
2017 - Passing Stages - Live In Milan And Atlanta [Avalon, MIZF-70027, 2CD, Japan] CD1
01. The Secret Part 1 (8:33)
02. The Secret Part 2 (7:28)
03. Animal (5:01)
04. The Passage (4:54)
05. Reason (5:00)
06. Daydreamer (5:51)
07. Disguise (2:06)
08. Fallen (6:13)
09. Ghosts Of Insanity (6:09)
10. Hereafter (5:00)
 
 
 CD2
01. Void (6:03)
02. Reason (5:12)
03. No Looking Back (6:01)
04. Universe (4:15)
05. Numb (4:55)
06. In A Movie (5:52)
07. Repay (5:10)
08. Heartache (5:18)
09. Enhancement (4:37)
10. Chaos (4:50)
11. Trust (7:07)
12. Brand New Blood (5:17)
13. Hereafter (Bonus Track) (5:20)

Лог создания рипа CD1

Exact Audio Copy V1.3 from 2. September 2016
EAC extraction logfile from 27. July 2017, 12:54
DGM / Passing Stages: Live in Milan (CD1) (Japan)
Used drive : MATSHITADVD-RAM UJ8G6 Adapter: 1 ID: 0
Read mode : Secure
Utilize accurate stream : Yes
Defeat audio cache : Yes
Make use of C2 pointers : No
Read offset correction : 103
Overread into Lead-In and Lead-Out : No
Fill up missing offset samples with silence : Yes
Delete leading and trailing silent blocks : No
Null samples used in CRC calculations : Yes
Used interface : Native Win32 interface for Win NT & 2000
Used output format : User Defined Encoder
Selected bitrate : 1024 kBit/s
Quality : High
Add ID3 tag : No
Command line compressor : C:\Program Files (x86)\Exact Audio Copy\FLAC\FLAC.EXE
Additional command line options : -V -8 -T "Date=%year%" -T"Genre=%genre%" -T"COMMENT=Ripped by Ilijan - ilko" -8 -V %source%
TOC of the extracted CD
Track | Start | Length | Start sector | End sector
---------------------------------------------------------
1 | 0:00.00 | 8:32.57 | 0 | 38456
2 | 8:32.57 | 7:27.41 | 38457 | 72022
3 | 16:00.23 | 5:01.25 | 72023 | 94622
4 | 21:01.48 | 4:54.31 | 94623 | 116703
5 | 25:56.04 | 5:00.23 | 116704 | 139226
6 | 30:56.27 | 5:51.06 | 139227 | 165557
7 | 36:47.33 | 2:06.37 | 165558 | 175044
8 | 38:53.70 | 6:13.05 | 175045 | 203024
9 | 45:07.00 | 6:08.40 | 203025 | 230664
10 | 51:15.40 | 4:59.72 | 230665 | 253161
Range status and errors
Selected range
Filename D:\ilko\DGM - Passing Stages- Live in Milan (CD1) (Japan).wav
Peak level 100.0 %
Extraction speed 4.0 X
Range quality 100.0 %
Test CRC 32C8FCF0
Copy CRC 32C8FCF0
Copy OK
No errors occurred
AccurateRip summary
Track 1 not present in database
Track 2 not present in database
Track 3 not present in database
Track 4 not present in database
Track 5 not present in database
Track 6 not present in database
Track 7 not present in database
Track 8 not present in database
Track 9 not present in database
Track 10 not present in database
None of the tracks are present in the AccurateRip database
End of status report
---- CUETools DB Plugin V2.1.6
[CTDB TOCID: C.QLieMK1NZhzHaKGZNwV0V2Izc-] found
Submit result: C.QLieMK1NZhzHaKGZNwV0V2Izc- has been confirmed
Track | CTDB Status
1 | (2/2) Accurately ripped
2 | (2/2) Accurately ripped
3 | (2/2) Accurately ripped
4 | (2/2) Accurately ripped
5 | (2/2) Accurately ripped
6 | (2/2) Accurately ripped
7 | (2/2) Accurately ripped
8 | (2/2) Accurately ripped
9 | (2/2) Accurately ripped
10 | (2/2) Accurately ripped
==== Log checksum E97C3EB71B1EB36A1F8DA71F0A0B0F9034ACE77A97AA8AB46CED3DB91B65CC03 ====

Лог создания рипа CD2

Exact Audio Copy V1.3 from 2. September 2016
EAC extraction logfile from 27. July 2017, 13:36
DGM / Passing Stages: Live In Atlanta (CD2) (Japan)
Used drive : MATSHITADVD-RAM UJ8G6 Adapter: 1 ID: 0
Read mode : Secure
Utilize accurate stream : Yes
Defeat audio cache : Yes
Make use of C2 pointers : No
Read offset correction : 103
Overread into Lead-In and Lead-Out : No
Fill up missing offset samples with silence : Yes
Delete leading and trailing silent blocks : No
Null samples used in CRC calculations : Yes
Used interface : Native Win32 interface for Win NT & 2000
Used output format : User Defined Encoder
Selected bitrate : 1024 kBit/s
Quality : High
Add ID3 tag : No
Command line compressor : C:\Program Files (x86)\Exact Audio Copy\FLAC\FLAC.EXE
Additional command line options : -V -8 -T "Date=%year%" -T"Genre=%genre%" -T"COMMENT=Ripped by Ilijan - ilko" -8 -V %source%
TOC of the extracted CD
Track | Start | Length | Start sector | End sector
---------------------------------------------------------
1 | 0:00.00 | 6:02.49 | 0 | 27198
2 | 6:02.49 | 5:12.26 | 27199 | 50624
3 | 11:15.00 | 6:01.31 | 50625 | 77730
4 | 17:16.31 | 4:15.24 | 77731 | 96879
5 | 21:31.55 | 4:54.58 | 96880 | 118987
6 | 26:26.38 | 5:52.15 | 118988 | 145402
7 | 32:18.53 | 5:09.50 | 145403 | 168627
8 | 37:28.28 | 5:17.50 | 168628 | 192452
9 | 42:46.03 | 4:37.30 | 192453 | 213257
10 | 47:23.33 | 4:50.15 | 213258 | 235022
11 | 52:13.48 | 7:06.51 | 235023 | 267023
12 | 59:20.24 | 5:17.16 | 267024 | 290814
13 | 64:37.40 | 5:20.34 | 290815 | 314848
Range status and errors
Selected range
Filename D:\ilko\DGM - Passing Stages- Live In Atlanta (CD2) (Japan).wav
Peak level 100.0 %
Extraction speed 4.5 X
Range quality 100.0 %
Test CRC E7F92642
Copy CRC E7F92642
Copy OK
No errors occurred
AccurateRip summary
Track 1 not present in database
Track 2 not present in database
Track 3 not present in database
Track 4 not present in database
Track 5 not present in database
Track 6 not present in database
Track 7 not present in database
Track 8 not present in database
Track 9 not present in database
Track 10 not present in database
Track 11 not present in database
Track 12 not present in database
Track 13 not present in database
None of the tracks are present in the AccurateRip database
End of status report
---- CUETools DB Plugin V2.1.6
[CTDB TOCID: BDzcLbYSMZFV_i6OztvfDhhK_DU-] disk not present in database
Submit result: BDzcLbYSMZFV_i6OztvfDhhK_DU- has been uploaded
==== Log checksum 12B246F50B71566F512CDD7F89316E9C18231FD72A93F44B73A5EDD2E46F026F ====

Об исполнителе (группе)

Итальянская группа DGM была сформирована в 1994 году в качестве инструментального проекта. В начале 1997 года музыканты начинают работу над дебютным полнометражником «Change Direction», который выходит в ноябре того же года. Работа снова получает положительные отзывы, но уже не только в Италии, но и в Германии, Финляндии, Дании и других странах. Команда выходит на международный уровень и совершает концертное турне по Италии с посещением всех крупнейших городов. В сентябре 1998 года группа начинает работу над новым материалом, в этот момент в группе происходит смена ударника. В 1999 году выходит вторая работа коллектива «Wings Of Time», имевшая невероятный успех. В Японии за первые десять дней было продано 4 000 копий альбома. В течение 2000 года состав группы претерпевает значительные изменения, в группе появляются новые вокалист, ударник и басист. Третий альбом DGM - “Dreamland” выходит лишь в декабре 2001 года. Он имеет огромный успех, и признается всеми лучшей работой группы. После него у группы закончился контракт с Elevate Records - лейблом, выпустившим все три альбома DGM. Интерес к группе проявляет Scarlet Records, с которыми и заключается контракт на выпуск четвертого альбома. Из группы уходит клавишник Maurizio Pariotti. Таким образом, из первоначального состава в коллективе остается лишь гитарист Diego Reali. Новым клавишником становится Fabio Sanges. 10 мая 2003 года выходит “Hidden Place”, а через год пришло время очередной работы.
Реальный европейский ответ на SYMPHONY X и DREAM THEATER!

Состав

Mark Basile Vocals See also: ex-Mind Key
Fabio Constantino Drums (1999-present) See also: ex-Carnal Rapture
Andrea Arcangeli Bass (2003-present) See also: Airlines of Terror, Evidence, Solisia, ex-Concept, ex-River of Change, ex-Thy Mortal Eyes
Simone Mularoni Guitars (2006-present) See also: Empyrios, Lalu, Martyr Lucifer, Hortus Animae (live)
Emanuele Casali Keyboards (2006-present) See also: Astra, ex-Empyrios

СПАСИБО

Ilijan
1999 - Wings Of Time [Sun Brain, SCCD-9, Japan]
2004 - Misplaced [Scarlet Rec., SC 096-2, Italy]
2007 - Different Shapes [Scarlet Rec., SC 138-2, Italy]
2009 - FrAme [Scarlet Rec., SC 172-2, Italy]
2010 - Synthesis - The Best Of DGM [Scarlet Rec., SC 196-9, Italy]
2016 - The Passage [Avalon, MICP-11302, Japan]
2017 - Passing Stages - Live In Milan And Atlanta [Avalon, MIZF-70027, 2CD, Japan]
spiralarch
1996 - Random Access Zone [Self-released, DGM 0100, Germany]
1997 - Change Direction [Elevate Rec., ERO 2003, Germany]
KorrOZZYya
2013 - Momentum [Avalon, MICP-11087, Japan]
DegradingLight MMT
2001 - Dreamland [Avalon, MICP-10268, Japan]
phiv NetLab
2003 - Hidden Place [CD-Maximum, CDM 0803-1459, Russia]

Для скачивания файла отключите блокировку рекламы и перезагрузите страницу.

disable adblock Как отключить блокировку рекламы?

Скачать по магнет ссылке 5,58 GB 

Войти с помощью:

Загрузка...
Загрузка...


   
Текущее время: 18-Июн 13:16 :: Часовой пояс: UTC ± 0