Testament - The Ritual (Japan press)
Жанр: Thrash metal
Год выпуска диска: 1992
Производитель диска: Japan, AMCY-412
Аудио кодек: FLAC
Тип рипа: tracks+.cue
Битрейт аудио: lossless
Продолжительность: 54:37
Трэклист:
1. Signs Of Chaos 00:45
2. Electric Crown 05:31
3. So Many Lies 06:04
4. Let Go Of My World 03:45
5. The Ritual 07:34
6. Deadline 04:47
7. As The Seasons Grey 06:16
8. Agony 04:07
9. The Sermon 04:48
10. Return To Serenity 06:25
11. Troubled Dreams 05:14
Доп. информация:
Label: Atlantic Recording
Testament:
Chuck Billy - Vocal
Eric Peterson - Guitar
Alex Skolnick - Guitar
Louie Clemente - Drums
Greg Christian - Bass
Rip с фирменного CD из собственной коллекции

EAC Log

Exact Audio Copy V0.99 prebeta 5 from 4. May 2009
Отчёт EAC об извлечении, выполненном 6. января 2010, 21:52
Testament / The Ritual
Дисковод: MATSHITABD-MLT UJ-210S Adapter: 0 ID: 0
Режим чтения : Достоверность
Использование точного потока : Да
Отключение кэша аудио : Да
Использование указателей C2 : Нет
Коррекция смещения при чтении : 102
Способность читать области Lead-in и Lead-out : Нет
Заполнение пропущенных сэмплов тишиной : Да
Удаление блоков с тишиной в начале и конце : Нет
При вычислениях CRC использовались нулевые сэмплы : Да
Интерфейс : Встроенный Win32-интерфейс для Win NT/2000
Обработка зазоров : Добавлено к предыдущему треку
Выходной формат : Внутренние WAV-операции
Формат сэмплов : 44.100 Гц; 16 бит; стерео
TOC извлечённого CD
Трек | Старт | Длительность | Начальный сектор | Конечный сектор
---------------------------------------------------------------------
1 | 0:00.00 | 0:30.70 | 0 | 2319
2 | 0:30.70 | 5:30.12 | 2320 | 27081
3 | 6:01.07 | 6:04.18 | 27082 | 54399
4 | 12:05.25 | 3:47.15 | 54400 | 71439
5 | 15:52.40 | 7:27.62 | 71440 | 105026
6 | 23:20.27 | 4:46.23 | 105027 | 126499
7 | 28:06.50 | 6:12.62 | 126500 | 154461
8 | 34:19.37 | 4:00.58 | 154462 | 172519
9 | 38:20.20 | 4:41.37 | 172520 | 193631
10 | 43:01.57 | 6:30.43 | 193632 | 222924
11 | 49:32.25 | 5:03.35 | 222925 | 245684
Трек 1
Имя файла J:\temp\Testament - The Ritual\01. Signs of Chaos.wav
Длина предзазора 0:00:02.00
Пиковый уровень 48.9 %
Качество трека 100.0 %
CRC теста 80E2ED34
CRC копии 80E2ED34
Трек не обнаружен в базе AccurateRip
Копирование... OK
Трек 2
Имя файла J:\temp\Testament - The Ritual\02. Electric Crown.wav
Пиковый уровень 99.9 %
Качество трека 100.0 %
CRC теста EB2AAB44
CRC копии EB2AAB44
Трек не обнаружен в базе AccurateRip
Копирование... OK
Трек 3
Имя файла J:\temp\Testament - The Ritual\03. So Many Lies.wav
Пиковый уровень 100.0 %
Качество трека 99.9 %
CRC теста AF59747A
CRC копии AF59747A
Трек не обнаружен в базе AccurateRip
Копирование... OK
Трек 4
Имя файла J:\temp\Testament - The Ritual\04. Let Go of My World.wav
Пиковый уровень 99.8 %
Качество трека 100.0 %
CRC теста DDBE061E
CRC копии DDBE061E
Трек не обнаружен в базе AccurateRip
Копирование... OK
Трек 5
Имя файла J:\temp\Testament - The Ritual\05. The Ritual.wav
Пиковый уровень 100.0 %
Качество трека 100.0 %
CRC теста AED876A9
CRC копии AED876A9
Трек не обнаружен в базе AccurateRip
Копирование... OK
Трек 6
Имя файла J:\temp\Testament - The Ritual\06. Deadline.wav
Пиковый уровень 99.9 %
Качество трека 100.0 %
CRC теста 0847B70D
CRC копии 0847B70D
Трек не обнаружен в базе AccurateRip
Копирование... OK
Трек 7
Имя файла J:\temp\Testament - The Ritual\07. As the Seasons Grey.wav
Пиковый уровень 99.9 %
Качество трека 100.0 %
CRC теста 6A1A7A27
CRC копии 6A1A7A27
Трек не обнаружен в базе AccurateRip
Копирование... OK
Трек 8
Имя файла J:\temp\Testament - The Ritual\08. Agony.wav
Длина предзазора 0:00:01.05
Пиковый уровень 100.0 %
Качество трека 100.0 %
CRC теста FF8D38AE
CRC копии FF8D38AE
Трек не обнаружен в базе AccurateRip
Копирование... OK
Трек 9
Имя файла J:\temp\Testament - The Ritual\09. The Sermon.wav
Пиковый уровень 100.0 %
Качество трека 100.0 %
CRC теста 6BE674FC
CRC копии 6BE674FC
Трек не обнаружен в базе AccurateRip
Копирование... OK
Трек 10
Имя файла J:\temp\Testament - The Ritual\10. Return to Serenity.wav
Пиковый уровень 99.9 %
Качество трека 100.0 %
CRC теста 3F9E8A45
CRC копии 3F9E8A45
Трек не обнаружен в базе AccurateRip
Копирование... OK
Трек 11
Имя файла J:\temp\Testament - The Ritual\11. Troubled Dreams.wav
Пиковый уровень 99.9 %
Качество трека 100.0 %
CRC теста 5D19CE93
CRC копии 5D19CE93
Трек не обнаружен в базе AccurateRip
Копирование... OK
Ни одного трека нет в базе AccurateRip
Ошибок не произошло
Конец отчёта

To download the file disable ad blocking, and reload the page.

disable adblock How to disable ad blocking?

Download by magnet link 395 MB Download Torrent

Login using:

Similar topics

(Thrash Metal) Disorder - Fuego Negro - 2017, MP3, 320 kbps
 68 MB   0 | 0   18-May-17 20:10   1
(Thrash Metal) Black Reaper - Blood Moon Rising - 2017, MP3, 320 kbps
 109 MB   0 | 0   18-May-17 20:10   0


   
Current time is: 15-Oct 14:36 :: All times are UTC ± 0