Various ‎– Absolute Music 4Жанр: Pop, Electronic, Rock, Synth-pop, Disco
Носитель: CD
Страна-производитель диска (релиза): Sweden
Год издания: 1988
Издатель (лейбл): EMI, Virgin, Electra
Номер по каталогу: 353259
Аудиокодек: FLAC (*.flac)
Тип рипа: image+.cue
Битрейт аудио: lossless
Продолжительность: 01:14:36
Источник (релизер): stas64
Наличие сканов в содержимом раздачи: да - 600 dpi

.Треклист:
01. Belinda Carlisle - Heaven Is A Place On Earth /4:05/
02. Taylor Dayne - Tell It To My Heart /3:43/
03. Trance Dance - You're Gonna Get It /3:53/
04. Jermaine Stewart - Say It Again /4:09/
05. Rick Astley - My Arms Keep Missing You /3:14/
06. Johnny Hates Jazz - Turn Back The Clock /4:25/
07. Eldkvarn - Karlekens Tunga /2:11/
08. French Revolution - Alien Too (Fallin') /4:54/
09. Lili & Sussie - Bara Du Och Jag /4:11/
10. Triad - Tand Ett Ljus (Music Version) /5:23/
11. Tomas Ledin - Crazy About You /4:05/
12. Dalbello - Tango /4:11/
13. Roxette - It Must Have Been Love /4:52/
14. Wax - In Some Other World /3:12/
15. T'Pau - China In Your Hand /4:06/
16. Bangles - Hazy Shade Of Winter /2:50/
17. Bryan Ferry - Kiss And Tell /4:07/
18. Whitney Houston - Where Do Broken Hearts Go /4:40/

Лог создания рипа

Exact Audio Copy V1.3 from 2. September 2016
Отчёт EAC об извлечении, выполненном 23. октября 2016, 8:18
Various / Absolute Music 4
Дисковод: PLEXTOR DVDR PX-712A Adapter: 8 ID: 1
Режим чтения : Достоверность
Использование точного потока : Да
Отключение кэша аудио : Да
Использование указателей C2 : Нет
Коррекция смещения при чтении : 30
Способность читать области Lead-in и Lead-out : Нет
Заполнение пропущенных сэмплов тишиной : Да
Удаление блоков с тишиной в начале и конце : Нет
При вычислениях CRC использовались нулевые сэмплы : Да
Интерфейс : Установленный внешний ASPI-интерфейс
Выходной формат : Пользовательский кодировщик
Выбранный битрейт : 128 kBit/s
Качество : Высокий
Добавление ID3-тега : Нет
Утилита сжатия : C:\Program Files\Exact Audio Copy\FLAC\FLAC.EXE
Дополнительные параметры : -V -8 -T "Genre=%genre%" -T "Artist=%artist%" -T "Title=%title%" -T "Album=%albumtitle%" -T "Date=%year%" -T "Tracknumber=%tracknr%" -T "Comment=%comment%" %source%
TOC извлечённого CD
Трек | Старт | Длительность | Начальный сектор | Конечный сектор
---------------------------------------------------------------------
1 | 0:00.00 | 4:06.00 | 0 | 18449
2 | 4:06.00 | 3:43.38 | 18450 | 35212
3 | 7:49.38 | 3:53.25 | 35213 | 52712
4 | 11:42.63 | 4:09.37 | 52713 | 71424
5 | 15:52.25 | 3:14.00 | 71425 | 85974
6 | 19:06.25 | 4:25.25 | 85975 | 105874
7 | 23:31.50 | 3:57.25 | 105875 | 123674
8 | 27:29.00 | 4:54.50 | 123675 | 145774
9 | 32:23.50 | 4:11.38 | 145775 | 164637
10 | 36:35.13 | 5:23.50 | 164638 | 188912
11 | 41:58.63 | 4:05.50 | 188913 | 207337
12 | 46:04.38 | 4:11.37 | 207338 | 226199
13 | 50:16.00 | 4:52.13 | 226200 | 248112
14 | 55:08.13 | 3:48.37 | 248113 | 265249
15 | 58:56.50 | 4:06.25 | 265250 | 283724
16 | 63:03.00 | 2:50.00 | 283725 | 296474
17 | 65:53.00 | 4:07.25 | 296475 | 315024
18 | 70:00.25 | 4:35.25 | 315025 | 335674
Характеристики диапазона извлечения и сообщения об ошибках
Выбранный диапазон
Имя файла I:\MOI_RAZDACI\VA_Absolute.Music.4_1988\VA_Absolute.Music.4_1988\Various - Absolute Music 4.wav
Пиковый уровень 100.0 %
Скорость извлечения 3.8 X
Качество диапазона 100.0 %
CRC теста 8F61B882
CRC копии 8F61B882
Копирование... OK
Ошибок не произошло
AccurateRip: сводка
Трек 1 : извлечено точно (доверие 4) [54BD8C54] (AR v2)
Трек 2 : извлечено точно (доверие 4) [E3EA106C] (AR v2)
Трек 3 : извлечено точно (доверие 4) [6CD3CF6D] (AR v2)
Трек 4 : извлечено точно (доверие 4) [229E8500] (AR v2)
Трек 5 : извлечено точно (доверие 4) [D97EBD90] (AR v2)
Трек 6 : извлечено точно (доверие 4) [CA1FB4AD] (AR v2)
Трек 7 : извлечено точно (доверие 4) [E804A4F5] (AR v2)
Трек 8 : извлечено точно (доверие 4) [00BE5AAA] (AR v2)
Трек 9 : извлечено точно (доверие 4) [6AA2113C] (AR v2)
Трек 10 : извлечено точно (доверие 4) [74E15E85] (AR v2)
Трек 11 : извлечено точно (доверие 3) [17F8F007] (AR v2)
Трек 12 : извлечено точно (доверие 3) [30A3AFEB] (AR v2)
Трек 13 : извлечено точно (доверие 3) [EED62EE5] (AR v2)
Трек 14 : извлечено точно (доверие 4) [F69055AC] (AR v2)
Трек 15 : извлечено точно (доверие 4) [0463BE20] (AR v2)
Трек 16 : извлечено точно (доверие 4) [8965C1B4] (AR v2)
Трек 17 : извлечено точно (доверие 4) [8373505A] (AR v2)
Трек 18 : извлечено точно (доверие 3) [F91AA57B] (AR v2)
Все треки извлечены точно
Конец отчёта
---- CUETools DB Plugin V2.1.6
[CTDB TOCID: T1Mi3l.WH51AMM3UcJFLl8dmqWA-] found
Submit result: T1Mi3l.WH51AMM3UcJFLl8dmqWA- has been confirmed
Track | CTDB Status
1 | (2/2) Accurately ripped
2 | (2/2) Accurately ripped
3 | (2/2) Accurately ripped
4 | (2/2) Accurately ripped
5 | (2/2) Accurately ripped
6 | (2/2) Accurately ripped
7 | (2/2) Accurately ripped
8 | (2/2) Accurately ripped
9 | (2/2) Accurately ripped
10 | (2/2) Accurately ripped
11 | (2/2) Accurately ripped
12 | (2/2) Accurately ripped
13 | (2/2) Accurately ripped
14 | (1/2) Accurately ripped
15 | (2/2) Accurately ripped
16 | (2/2) Accurately ripped
17 | (2/2) Accurately ripped
18 | (2/2) Accurately ripped
==== Контрольная сумма отчёта 209858C75A97B63FF955D75925920805940042E04388F17218EAF8625930BD0B ====

Содержание индексной карты (.CUE)

REM GENRE Pop
REM DATE 1988
REM DISCID FC117B12
REM COMMENT "ExactAudioCopy v1.3"
CATALOG 0000000000000
PERFORMER "Various"
TITLE "Absolute Music 4"
REM COMPOSER ""
FILE "Various - Absolute Music 4.flac" WAVE
TRACK 01 AUDIO
TITLE "Heaven Is a Place on Earth"
PERFORMER "Belinda Carlisle"
REM COMPOSER ""
INDEX 01 00:00:00
TRACK 02 AUDIO
TITLE "Tell It to My Heart"
PERFORMER "Taylor Dayne"
REM COMPOSER ""
INDEX 00 04:03:60
INDEX 01 04:06:00
TRACK 03 AUDIO
TITLE "You're Gonna Get It"
PERFORMER "Trance Dance"
REM COMPOSER ""
INDEX 00 07:47:38
INDEX 01 07:49:38
TRACK 04 AUDIO
TITLE "Say It Again"
PERFORMER "Jermaine Stewart"
REM COMPOSER ""
INDEX 00 11:40:25
INDEX 01 11:42:63
TRACK 05 AUDIO
TITLE "My Arms Keep Missing You"
PERFORMER "Rick Astley"
REM COMPOSER ""
INDEX 00 15:50:13
INDEX 01 15:52:25
TRACK 06 AUDIO
TITLE "Turn Back the Clock"
PERFORMER "Johnny Hates Jazz"
REM COMPOSER ""
INDEX 00 19:04:00
INDEX 01 19:06:25
TRACK 07 AUDIO
TITLE "Karlekens tunga"
PERFORMER "Eldkvarn"
REM COMPOSER ""
INDEX 00 23:29:38
INDEX 01 23:31:50
TRACK 08 AUDIO
TITLE "Alien Too (Fallin')"
PERFORMER "French Revolution"
REM COMPOSER ""
INDEX 00 27:27:00
INDEX 01 27:29:00
TRACK 09 AUDIO
TITLE "Bara du och jag"
PERFORMER "Lili & Susie"
REM COMPOSER ""
INDEX 00 32:21:50
INDEX 01 32:23:50
TRACK 10 AUDIO
TITLE "Tand ett ljus (Music version)"
PERFORMER "Triad"
REM COMPOSER ""
INDEX 00 36:33:13
INDEX 01 36:35:13
TRACK 11 AUDIO
TITLE "Crazy About You"
PERFORMER "Tomas Ledin"
REM COMPOSER ""
INDEX 00 41:56:60
INDEX 01 41:58:63
TRACK 12 AUDIO
TITLE "Tango"
PERFORMER "Dalbello"
REM COMPOSER ""
INDEX 00 46:02:13
INDEX 01 46:04:38
TRACK 13 AUDIO
TITLE "It Must Have Been Love"
PERFORMER "Roxette"
REM COMPOSER ""
INDEX 00 50:14:00
INDEX 01 50:16:00
TRACK 14 AUDIO
TITLE "In Some Other World"
PERFORMER "Wax"
REM COMPOSER ""
INDEX 00 55:06:13
INDEX 01 55:08:13
TRACK 15 AUDIO
TITLE "China in Your Hand"
PERFORMER "T’Pau"
REM COMPOSER ""
INDEX 00 58:54:13
INDEX 01 58:56:50
TRACK 16 AUDIO
TITLE "Hazy Shade of Winter"
PERFORMER "Bangles"
REM COMPOSER ""
INDEX 00 63:00:63
INDEX 01 63:03:00
TRACK 17 AUDIO
TITLE "Kiss and Tell"
PERFORMER "Bryan Ferry"
REM COMPOSER ""
INDEX 00 65:50:60
INDEX 01 65:53:00
TRACK 18 AUDIO
TITLE "Where Do Broken Hearts Go"
PERFORMER "Whitney Houston"
REM COMPOSER ""
INDEX 00 69:57:60
INDEX 01 70:00:25

Лог проверки качества / CDDA 100%

-----------------------
DON'T MODIFY THIS FILE
-----------------------
PERFORMER: auCDtect Task Manager, ver. 1.5.1RC6 build 1.5.1.7
Copyright (c) 2008-2010 y-soft. All rights reserved
http://y-soft.org
ANALYZER: auCDtect: CD records authenticity detector, version 0.8.2
Copyright (c) 2004 Oleg Berngardt. All rights reserved.
Copyright (c) 2004 Alexander Djourik. All rights reserved.
FILE: Various - Absolute Music 4.flac
Size: 523395202 Hash: EFD5B7676CEC5B97DA6AA20A62C01710 Accuracy: -m0
Conclusion: CDDA 100%
Signature: 8D741F6D68DEE2612EEE0A2C9259470D5FC61885

Скриншот спектра частот

To download the file disable ad blocking, and reload the page.

disable adblock How to disable ad blocking?

Download by magnet link 513 MB Download Torrent

Login using:

Similar topics

(Pop-Rock / Electronic) U2 - Summer of Love [EP] - 2018, MP3, 320 kbps
 50 MB   0 | 0   22-Aug-18 07:00   0


   
Current time is: 15-Oct 14:36 :: All times are UTC ± 0