Gianmaria Testa / Il valzer di un giorno
Жанр: Chanson
Носитель: CD
Страна-производитель диска (релиза): Germany
Год издания: 2000
Издатель (лейбл): Le Chant du Monde
Номер по каталогу: 2741095
Страна исполнителя (группы): Italy
Аудиокодек: FLAC (*.flac)
Тип рипа: tracks+.cue
Битрейт аудио: lossless
Продолжительность: 00:49:25
Источник (релизер): my own rip
Наличие сканов в содержимом раздачи: да
Треклист:
01 - Il Viaggio 3:29
02 - Sono Belle Le Cose 1:35
03 - Dentro La Tasca Di Un Qualunque Mattino 2:45
04 - Un Aeroplano A Vela 3:18
05 - La Traiettorie Delle Mongolfiere 3:27
06 - Sappi Che Tutte Le Strade 0:19
07 - Como Le Onde Dela Mare 3:01
08 - Lampo 2:52
09 - Città Lunga 3:46
10 - Avrei Voluto Baciarti 0:15
11 - Gli Amanti Di Roma 2:48
12 - L'Automobile 3:16
13 - Le Donne Nelle Stazioni 3:01
14 - Piccoli Fiumi 3:53
15 - Mi Sento Solo 1:09
16 - Polvere Di Gesso 4:18
17 - Il Valzer Di Un Giorno 3:27
18 - Plage Du Prophète 1:33

Лог создания рипа

Exact Audio Copy V1.0 beta 3 from 29. August 2011
EAC extraction logfile from 20. October 2017, 16:00
Gianmaria Testa / Il valzer di un giorno
Used drive : TSSTcorpCD/DVDW SH-S162L Adapter: 2 ID: 0
Read mode : Secure
Utilize accurate stream : Yes
Defeat audio cache : Yes
Make use of C2 pointers : No
Read offset correction : 6
Overread into Lead-In and Lead-Out : No
Fill up missing offset samples with silence : Yes
Delete leading and trailing silent blocks : No
Null samples used in CRC calculations : Yes
Used interface : Native Win32 interface for Win NT & 2000
Gap handling : Appended to previous track
Used output format : User Defined Encoder
Selected bitrate : 896 kBit/s
Quality : High
Add ID3 tag : No
Command line compressor : C:\Program Files\Exact Audio Copy\FLAC\FLAC.EXE
Additional command line options : -V -8 -T "Genre=%genre%" -T "Artist=%artist%" -T "Title=%title%" -T "Album=%albumtitle%" -T "Date=%year%" -T "Tracknumber=%tracknr%" -T "Comment=%comment%" %source%
TOC of the extracted CD
Track | Start | Length | Start sector | End sector
---------------------------------------------------------
1 | 0:00.32 | 3:34.73 | 32 | 16154
2 | 3:35.30 | 1:38.12 | 16155 | 23516
3 | 5:13.42 | 2:48.70 | 23517 | 36186
4 | 8:02.37 | 3:20.43 | 36187 | 51229
5 | 11:23.05 | 3:31.45 | 51230 | 67099
6 | 14:54.50 | 0:23.02 | 67100 | 68826
7 | 15:17.52 | 3:05.08 | 68827 | 82709
8 | 18:22.60 | 2:55.55 | 82710 | 95889
9 | 21:18.40 | 3:49.32 | 95890 | 113096
10 | 25:07.72 | 0:20.40 | 113097 | 114636
11 | 25:28.37 | 2:50.53 | 114637 | 127439
12 | 28:19.15 | 3:20.32 | 127440 | 142471
13 | 31:39.47 | 3:05.15 | 142472 | 156361
14 | 34:44.62 | 3:57.23 | 156362 | 174159
15 | 38:42.10 | 1:12.52 | 174160 | 179611
16 | 39:54.62 | 4:22.45 | 179612 | 199306
17 | 44:17.32 | 3:33.48 | 199307 | 215329
18 | 47:51.05 | 1:34.42 | 215330 | 222421
Track 1
Filename D:\Music\Rock, Blues, Pop\Gianmaria Testa - Il valzer di un giorno - 2000\01 Il viaggio.wav
Pre-gap length 0:00:02.32
Peak level 80.3 %
Extraction speed 4.3 X
Track quality 100.0 %
Test CRC F55805BF
Copy CRC F55805BF
Copy OK
Track 2
Filename D:\Music\Rock, Blues, Pop\Gianmaria Testa - Il valzer di un giorno - 2000\02 Sono belle le cose.wav
Pre-gap length 0:00:04.38
Peak level 80.3 %
Extraction speed 3.9 X
Track quality 100.0 %
Test CRC EE6556CE
Copy CRC EE6556CE
Copy OK
Track 3
Filename D:\Music\Rock, Blues, Pop\Gianmaria Testa - Il valzer di un giorno - 2000\03 Dentro la tasca di un qualunque matino.wav
Pre-gap length 0:00:02.42
Peak level 80.3 %
Extraction speed 4.7 X
Track quality 100.0 %
Test CRC 579985A2
Copy CRC 579985A2
Copy OK
Track 4
Filename D:\Music\Rock, Blues, Pop\Gianmaria Testa - Il valzer di un giorno - 2000\04 Un aeroplano a vela.wav
Pre-gap length 0:00:02.62
Peak level 80.6 %
Extraction speed 5.2 X
Track quality 100.0 %
Test CRC D511430E
Copy CRC D511430E
Copy OK
Track 5
Filename D:\Music\Rock, Blues, Pop\Gianmaria Testa - Il valzer di un giorno - 2000\05 La traiettorie delle mongolfiere.wav
Pre-gap length 0:00:02.08
Peak level 76.7 %
Extraction speed 5.6 X
Track quality 100.0 %
Test CRC 452330A4
Copy CRC 452330A4
Copy OK
Track 6
Filename D:\Music\Rock, Blues, Pop\Gianmaria Testa - Il valzer di un giorno - 2000\06 Sappi che tutte le strade.wav
Pre-gap length 0:00:03.28
Peak level 75.6 %
Extraction speed 2.4 X
Track quality 100.0 %
Test CRC E7C3099D
Copy CRC E7C3099D
Copy OK
Track 7
Filename D:\Music\Rock, Blues, Pop\Gianmaria Testa - Il valzer di un giorno - 2000\07 Come le onde del mare.wav
Pre-gap length 0:00:03.17
Peak level 76.7 %
Extraction speed 5.8 X
Track quality 100.0 %
Test CRC 090B9C4B
Copy CRC 090B9C4B
Copy OK
Track 8
Filename D:\Music\Rock, Blues, Pop\Gianmaria Testa - Il valzer di un giorno - 2000\08 Lampo.wav
Pre-gap length 0:00:03.63
Peak level 82.2 %
Extraction speed 6.0 X
Track quality 100.0 %
Test CRC B64AE92F
Copy CRC B64AE92F
Copy OK
Track 9
Filename D:\Music\Rock, Blues, Pop\Gianmaria Testa - Il valzer di un giorno - 2000\09 Citta lunga.wav
Pre-gap length 0:00:03.10
Peak level 58.5 %
Extraction speed 5.7 X
Track quality 99.9 %
Test CRC 2BCFD239
Copy CRC 2BCFD239
Copy OK
Track 10
Filename D:\Music\Rock, Blues, Pop\Gianmaria Testa - Il valzer di un giorno - 2000\10 Avrei voluto baciarti.wav
Pre-gap length 0:00:03.17
Peak level 56.6 %
Extraction speed 1.6 X
Track quality 99.4 %
Test CRC 79A8AD38
Copy CRC 79A8AD38
Copy OK
Track 11
Filename D:\Music\Rock, Blues, Pop\Gianmaria Testa - Il valzer di un giorno - 2000\11 Gli amanti di Roma.wav
Pre-gap length 0:00:04.35
Peak level 80.3 %
Extraction speed 6.5 X
Track quality 100.0 %
Test CRC D6FFFD47
Copy CRC D6FFFD47
Copy OK
Track 12
Filename D:\Music\Rock, Blues, Pop\Gianmaria Testa - Il valzer di un giorno - 2000\12 L'automobile.wav
Pre-gap length 0:00:02.35
Peak level 83.6 %
Extraction speed 6.9 X
Track quality 100.0 %
Test CRC 75B1262D
Copy CRC 75B1262D
Copy OK
Track 13
Filename D:\Music\Rock, Blues, Pop\Gianmaria Testa - Il valzer di un giorno - 2000\13 Le donne nelle stazioni.wav
Pre-gap length 0:00:03.30
Peak level 80.3 %
Extraction speed 7.1 X
Track quality 100.0 %
Test CRC C85811E1
Copy CRC C85811E1
Copy OK
Track 14
Filename D:\Music\Rock, Blues, Pop\Gianmaria Testa - Il valzer di un giorno - 2000\14 Piccoli fiumi.wav
Pre-gap length 0:00:03.05
Peak level 80.3 %
Extraction speed 7.5 X
Track quality 100.0 %
Test CRC F9A3116F
Copy CRC F9A3116F
Copy OK
Track 15
Filename D:\Music\Rock, Blues, Pop\Gianmaria Testa - Il valzer di un giorno - 2000\15 Mi sento solo.wav
Pre-gap length 0:00:03.68
Peak level 57.5 %
Extraction speed 4.4 X
Track quality 99.8 %
Test CRC 24A296D6
Copy CRC 24A296D6
Copy OK
Track 16
Filename D:\Music\Rock, Blues, Pop\Gianmaria Testa - Il valzer di un giorno - 2000\16 Polvere di gesso.wav
Pre-gap length 0:00:03.32
Peak level 77.6 %
Extraction speed 7.1 X
Track quality 99.9 %
Test CRC 4973C618
Copy CRC 4973C618
Copy OK
Track 17
Filename D:\Music\Rock, Blues, Pop\Gianmaria Testa - Il valzer di un giorno - 2000\17 Il valzer di un giorno.wav
Pre-gap length 0:00:03.47
Peak level 80.3 %
Extraction speed 8.0 X
Track quality 100.0 %
Test CRC 49099A30
Copy CRC 49099A30
Copy OK
Track 18
Filename D:\Music\Rock, Blues, Pop\Gianmaria Testa - Il valzer di un giorno - 2000\18 Plage du prophète.wav
Pre-gap length 0:00:05.55
Peak level 87.8 %
Extraction speed 6.8 X
Track quality 100.0 %
Test CRC E088D5F1
Copy CRC E088D5F1
Copy OK
No errors occurred
End of status report
==== Log checksum 9F9D910833F4EC52184ABE2918E0CBE62DCDF995368A5B074B7E9DA25A3D2C7B ====

Содержание индексной карты (.CUE)

REM GENRE Chanson
REM DATE 2000
REM DISCID F80B9512
REM COMMENT "ExactAudioCopy v1.0b3"
PERFORMER "Gianmaria Testa"
TITLE "Il valzer di un giorno"
FILE "01 Il viaggio.flac" WAVE
TRACK 01 AUDIO
TITLE "Il viaggio"
PERFORMER "Gianmaria Testa"
PREGAP 00:00:32
INDEX 01 00:00:00
TRACK 02 AUDIO
TITLE "Sono belle le cose"
PERFORMER "Gianmaria Testa"
INDEX 00 03:30:35
FILE "02 Sono belle le cose.flac" WAVE
INDEX 01 00:00:00
TRACK 03 AUDIO
TITLE "Dentro la tasca di un qualunque matino"
PERFORMER "Gianmaria Testa"
INDEX 00 01:35:45
FILE "03 Dentro la tasca di un qualunque matino.flac" WAVE
INDEX 01 00:00:00
TRACK 04 AUDIO
TITLE "Un aeroplano a vela"
PERFORMER "Gianmaria Testa"
INDEX 00 02:46:08
FILE "04 Un aeroplano a vela.flac" WAVE
INDEX 01 00:00:00
TRACK 05 AUDIO
TITLE "La traiettorie delle mongolfiere"
PERFORMER "Gianmaria Testa"
INDEX 00 03:18:35
FILE "05 La traiettorie delle mongolfiere.flac" WAVE
INDEX 01 00:00:00
TRACK 06 AUDIO
TITLE "Sappi che tutte le strade"
PERFORMER "Gianmaria Testa"
INDEX 00 03:28:17
FILE "06 Sappi che tutte le strade.flac" WAVE
INDEX 01 00:00:00
TRACK 07 AUDIO
TITLE "Come le onde del mare"
PERFORMER "Gianmaria Testa"
INDEX 00 00:19:60
FILE "07 Come le onde del mare.flac" WAVE
INDEX 01 00:00:00
TRACK 08 AUDIO
TITLE "Lampo"
PERFORMER "Gianmaria Testa"
INDEX 00 03:01:20
FILE "08 Lampo.flac" WAVE
INDEX 01 00:00:00
TRACK 09 AUDIO
TITLE "Citta lunga"
PERFORMER "Gianmaria Testa"
INDEX 00 02:52:45
FILE "09 Citta lunga.flac" WAVE
INDEX 01 00:00:00
TRACK 10 AUDIO
TITLE "Avrei voluto baciarti"
PERFORMER "Gianmaria Testa"
INDEX 00 03:46:15
FILE "10 Avrei voluto baciarti.flac" WAVE
INDEX 01 00:00:00
TRACK 11 AUDIO
TITLE "Gli amanti di Roma"
PERFORMER "Gianmaria Testa"
INDEX 00 00:16:05
FILE "11 Gli amanti di Roma.flac" WAVE
INDEX 01 00:00:00
TRACK 12 AUDIO
TITLE "L'automobile"
PERFORMER "Gianmaria Testa"
INDEX 00 02:48:18
FILE "12 L'automobile.flac" WAVE
INDEX 01 00:00:00
TRACK 13 AUDIO
TITLE "Le donne nelle stazioni"
PERFORMER "Gianmaria Testa"
INDEX 00 03:17:02
FILE "13 Le donne nelle stazioni.flac" WAVE
INDEX 01 00:00:00
TRACK 14 AUDIO
TITLE "Piccoli fiumi"
PERFORMER "Gianmaria Testa"
INDEX 00 03:02:10
FILE "14 Piccoli fiumi.flac" WAVE
INDEX 01 00:00:00
TRACK 15 AUDIO
TITLE "Mi sento solo"
PERFORMER "Gianmaria Testa"
INDEX 00 03:53:30
FILE "15 Mi sento solo.flac" WAVE
INDEX 01 00:00:00
TRACK 16 AUDIO
TITLE "Polvere di gesso"
PERFORMER "Gianmaria Testa"
INDEX 00 01:09:20
FILE "16 Polvere di gesso.flac" WAVE
INDEX 01 00:00:00
TRACK 17 AUDIO
TITLE "Il valzer di un giorno"
PERFORMER "Gianmaria Testa"
INDEX 00 04:18:73
FILE "17 Il valzer di un giorno.flac" WAVE
INDEX 01 00:00:00
TRACK 18 AUDIO
TITLE "Plage du prophète"
PERFORMER "Gianmaria Testa"
INDEX 00 03:27:68
FILE "18 Plage du prophète.flac" WAVE
INDEX 01 00:00:00
Доп. информация:

Об исполнителе (группе)

https://it.wikipedia.org/wiki/Gianmaria_Testa#Album_in_studio

Состав

Guitar, Melodica – Pier Mario Giovannone
Vocals, Guitar – Gianmaria Testa

To download the file disable ad blocking, and reload the page.

disable adblock How to disable ad blocking?

Download by magnet link 320 MB Download Torrent

Login using:

Similar topics

(Pop, Chanson française) Cali - Vernet les Bains - 2012, MP3, 320 kbps
 98 MB   0 | 0   30-Apr-17 17:02   0
(Chanson) Nicolas Peyrac - Le disque d\'Or - 2012, MP3, 320 kbps
 137 MB   0 | 0   30-Apr-17 17:02   0


   
Current time is: 18-Oct 20:24 :: All times are UTC ± 0